• Игры для PS4
  • Игры для PS3
  • Игры для XBOX360
  • Игры для PC
  • Игры для PS2
  • Игры для PSP
  • Для телефонов
  • Музыка
  • Книги / Журналы
  • Обои
  • Опрос
    Откуда Вы о нас узнали?
      0
    • От знакомых2,1,false,300,full
    • Из социальных сетей2,2,false,300,full
    • Из поисковых систем2,3,false,300,full
    • Другое2,4,false,300,full
    Статистика
    Всего онлайн -
    Гостей -
    Пользователей -
    Короли трекера
    
    Благодарности () Закрыть
    Информация о фильме
    Название: Лунатики
    Оригинальное название: Sleepwalkers
    Год выхода: 1992
    Жанр:  Ужасы, триллер, экранизация
    Режиссер: Мик Гаррис
    В ролях: Брайан Краузе, Элис Крайдж, Мэдчен Эмик, Джим Хэйни, Синди Пикетт, Рон Перлман, Дэн Мартин, Гленн Шэдикс, Синтия Гаррис, Монти Бейн, Джон Лэндис, Джо Данте, Стивен Кинг, Клайв Баркер, Лиман Уорд, Тоуб Хупер, Фрэнк Новак, Расти Швиммер, Ричард Пенн, Эрни Лайвли, Боджесси Кристофер, Стюарт Чарно, Дайан Дилэйно, Роджер Нолан, Джои Ареско, Майкл Рид МакКэй, Чарльз Кроувэлл, Дональд Питерсен

    О фильме :
    Чарльз Брэйди и его мать — таинственное порождение темных сил: они оборотни. Их любимая добыча — молодые девственницы, дарующие им жизненную энергию. Но выбранная ими новая жертва оказывается сильнее и изобретательнее своих преследователей. Школьница Таня Робертсон находит оружие против кровавой семейки. Больше всего на свете они боятся кошачьих когтей…



    Страна: США, Columbia Pictures, Ion Pictures
    Продолжительность: 01:29:11
    Перевод: Перевод: Профессиональный (многоголосый закадровый) | Видеосервис

    Файл
    Формат: MKV
    Качество: HDRip-AVC
    Видео: MPEG-4 AVC, 736x400, ~ 1096 Кбит/с
    Аудио: [img]http://i93.fastpic.ru/big/2017/0727/c0/4b72f0369a3393219ed5935e91fc15c0.gif[/img] AAC-LC, 2 ch, ~72 Кбит/с
    Субтитры: Русские, Английские

    MI
    Общее
    Уникальный идентификатор : 186169049471591112381422848103103262333 (0x8C0EDACE3EA5A646A9896FC3503EEE7D)
    Полное имя : D:MOVIESSleepwalkers.1992.ExKinoRay.mkv
    Формат : Matroska
    Версия формата : Version 4 / Version 2
    Размер файла : 746 Мбайт
    Продолжительность : 1 ч. 29 м.
    Общий поток : 1170 Кбит/сек
    Дата кодирования : UTC 2017-09-20 11:35:31
    Программа кодирования : mkvmerge v15.0.0 ("Duel with the Devil") 64-bit
    Библиотека кодирования : libebml v1.3.5 + libmatroska v1.4.5

    Видео
    Идентификатор : 1
    Формат : AVC
    Формат/Информация : Advanced Video Codec
    Профиль формата : High@L4.1
    Параметр CABAC формата : Да
    Параметр RefFrames формата : 10 кадров
    Идентификатор кодека : V_MPEG4/ISO/AVC
    Продолжительность : 1 ч. 29 м.
    Битрейт : 1096 Кбит/сек
    Ширина : 736 пикселей
    Высота : 400 пикселей
    Соотношение сторон : 1,85:1
    Режим частоты кадров : Постоянный
    Частота кадров : 23,976 (24000/1001) кадра/сек
    Цветовое пространство : YUV
    Субдискретизация насыщенности : 4:2:0
    Битовая глубина : 8 бит
    Тип развёртки : Прогрессивная
    Бит/(Пиксели*Кадры) : 0.155
    Размер потока : 699 Мбайт (94%)
    Библиотека кодирования : x264 core 152 r2851kMod ba24899
    Настройки программы : cabac=1 / ref=10 / deblock=1:-1:-1 / analyse=0x3:0x113 / me=umh / subme=11 / psy=1 / fade_compensate=0.00 / psy_rd=1.00:0.20 / mixed_ref=1 / me_range=32 / chroma_me=1 / trellis=2 / 8x8dct=1 / cqm=0 / deadzone=21,11 / fast_pskip=0 / chroma_qp_offset=-3 / threads=6 / lookahead_threads=1 / sliced_threads=0 / nr=0 / decimate=0 / interlaced=0 / bluray_compat=0 / constrained_intra=0 / bframes=10 / b_pyramid=2 / b_adapt=2 / b_bias=0 / direct=3 / weightb=1 / open_gop=0 / weightp=2 / keyint=240 / keyint_min=23 / scenecut=40 / intra_refresh=0 / rc_lookahead=40 / rc=2pass / mbtree=1 / bitrate=1096 / ratetol=1.0 / qcomp=0.60 / qpmin=0 / qpmax=69 / qpstep=4 / cplxblur=20.0 / qblur=0.5 / vbv_maxrate=50000 / vbv_bufsize=62500 / nal_hrd=none / filler=0 / ip_ratio=1.40 / aq=3:1.00
    Default : Да
    Forced : Нет

    Аудио
    Идентификатор : 2
    Формат : AAC
    Формат/Информация : Advanced Audio Codec
    Профиль формата : LC
    Идентификатор кодека : A_AAC
    Продолжительность : 1 ч. 29 м.
    Битрейт : 72,0 Кбит/сек
    Каналы : 2 канала
    Расположение каналов : Front: L R
    Частота : 48,0 КГц
    Частота кадров : 46,875 кадров/сек (1024 SPF)
    Метод сжатия : С потерями
    Задержка видео : 9 мс.
    Размер потока : 45,9 Мбайт (6%)
    Default : Да
    Forced : Нет

    Текст #1
    Идентификатор : 3
    Формат : UTF-8
    Идентификатор кодека : S_TEXT/UTF8
    Идентификатор кодека/Информация : UTF-8 Plain Text
    Продолжительность : 1 ч. 25 м.
    Битрейт : 69 бит/сек
    ElementCount : 914
    Размер потока : 43,6 Кбайт (0%)
    Заголовок : Rus
    Язык : Russian
    Default : Нет
    Forced : Нет

    Текст #2
    Идентификатор : 4
    Формат : UTF-8
    Идентификатор кодека : S_TEXT/UTF8
    Идентификатор кодека/Информация : UTF-8 Plain Text
    Продолжительность : 1 ч. 25 м.
    Битрейт : 43 бит/сек
    ElementCount : 1044
    Размер потока : 27,1 Кбайт (0%)
    Заголовок : Eng
    Язык : English
    Default : Нет
    Forced : Нет
    Свернуть


    Скриншоты
    [screen]http://i91.fastpic.ru/big/2017/0920/47/718a0deff25a34165929a1154cb81647.jpg[/screen][screen]http://i91.fastpic.ru/big/2017/0920/3f/bb8e44ef0304b8143a04558a0fd8cf3f.jpg[/screen][screen]http://i89.fastpic.ru/big/2017/0920/fd/318c513e9b1d9d5a0e180f7239ef4bfd.jpg[/screen][screen]http://i89.fastpic.ru/big/2017/0920/51/af2547dc46d237aedeb97b5ad1014e51.jpg[/screen]

    [screen]http://i91.fastpic.ru/big/2017/0920/6a/a68c4ef5b2bda4b30e859056f903dc6a.jpg[/screen][screen]http://i89.fastpic.ru/big/2017/0920/3b/94559b8b34c2428099f556cea785693b.jpg[/screen][screen]http://i89.fastpic.ru/big/2017/0920/b6/d26f1b681d205f12e8e4094fc5c719b6.jpg[/screen][screen]http://i91.fastpic.ru/big/2017/0920/46/24a5332a8535b9b7e978531892daab46.jpg[/screen]Свернуть
    Инструкция по скачиванию
     1  Качаем uTorrent версии 2.0 и выше
     2  После установки, жмем выше под постером на ссылку Скачать [MediaGet] или Скачать .torrent
     3  Открываем скачанный файл через соответствующий клиент: MediaGet или uTorrent
     4  Ждем пока подключатся участники
     5  Качаем
    Комментарии о  Лунатики / Sleepwalkers | HDRip-AVC 
    Ближайшее в кино
    Вверх