• Игры для PS4
  • Игры для PS3
  • Игры для XBOX360
  • Игры для PC
  • Игры для PS2
  • Игры для PSP
  • Для телефонов
  • Музыка
  • Книги / Журналы
  • Обои
  • Опрос
    Удобен ли сайт в использовании?
      0
    • Очень удобен, все понятно1,1,false,300,full
    • Удобен1,2,false,300,full
    • Средне1,3,false,300,full
    • Неудобен, трудно ориентироваться1,4,false,300,full
    • Совсем неудобен1,5,false,300,full
    Статистика
    Всего онлайн -
    Гостей -
    Пользователей -
    Короли трекера
    
    Благодарности () Закрыть
    Информация о фильме
    Название: Лунатики
    Оригинальное название: Sleepwalkers
    Год выхода: 1992
    Жанр: Ужасы, триллер, экранизация
    Режиссер: Мик Гэррис
    В ролях: Брайан Краузе, Мэдхен Амик, Элис Криге, Джим Хейни, Синди Пикетт, Рон Перлман, Лаймен Уорд, Дэн Мартин, Гленн Шэдикс, Синтия Гэррис, Монти Бэйн, Расти Швиммер, Фрэнк Новак, О. Николас Браун, Ричард Пенн, Эрни Лайвли, Боджесси Кристофер, Марк Хэмилл, Стивен Кинг

    О фильме:
    Чарльз Брэйди и его мать — таинственное порождение темных сил: они оборотни. Их любимая добыча — молодые девственницы, дарующие им жизненную энергию. Но выбранная ими новая жертва оказывается сильнее и изобретательнее своих преследователей....



    Страна: США
    Студия: Columbia Pictures, Ion Pictures
    Продолжительность: 01:29:11
    Перевод: Профессиональный (многоголосый,закадровый) - Видеосервис

    Файл
    Кодек: XviD
    Качество: HDRip Исходник
    Видео: 704x384 (1.85:1), 23.976 fps, XviD build 73 ~1030 kbps avg, 0.16 bit/pixel
    Звук: 48 kHz, MPEG Layer 3, 2 ch, ~128.00 kbps avg
    Субтитры: Отсутствуют

    Семпл

    MI
    General
    Complete name               : D:ТоррентыРип от ШкиперЛунатикиSleepwalkers.HDRip by shkiper.avi
    Format                      : AVI
    Format/Info                 : Audio Video Interleave
    File size                   : 745 MiB
    Duration                    : 1 h 29 min
    Overall bit rate            : 1 168 kb/s
    Writing application         : VirtualDubMod 1.5.10.3 | www.virtualdub-fr.org || (build 2550/release)
    Writing library             : VirtualDubMod build 2550/release

    Video
    ID                          : 0
    Format                      : MPEG-4 Visual
    Format profile              : Advanced Simple@L5
    Format settings, BVOP       : 1
    Format settings, QPel       : No
    Format settings, GMC        : No warppoints
    Format settings, Matrix     : Custom
    Codec ID                    : XVID
    Codec ID/Hint               : XviD
    Duration                    : 1 h 29 min
    Bit rate                    : 1 031 kb/s
    Width                       : 704 pixels
    Height                      : 384 pixels
    Display aspect ratio        : 1.85:1
    Frame rate                  : 23.976 (24000/1001) FPS
    Color space                 : YUV
    Chroma subsampling          : 4:2:0
    Bit depth                   : 8 bits
    Scan type                   : Progressive
    Compression mode            : Lossy
    Bits/(Pixel*Frame)          : 0.159
    Stream size                 : 657 MiB (88%)
    Writing library             : XviD 73

    Audio
    ID                          : 1
    Format                      : MPEG Audio
    Format version              : Version 1
    Format profile              : Layer 3
    Codec ID                    : 55
    Codec ID/Hint               : MP3
    Duration                    : 1 h 29 min
    Bit rate mode               : Constant
    Bit rate                    : 128 kb/s
    Channel(s)                  : 2 channels
    Sampling rate               : 48.0 kHz
    Compression mode            : Lossy
    Stream size                 : 81.7 MiB (11%)
    Alignment                   : Aligned on interleaves
    Interleave, duration        : 42  ms (1.00 video frame)
    Interleave, preload duratio : 504  ms
    Writing library             : LAME3.99r
    Encoding settings           : -m s -V 4 -q 2 -lowpass 17 -b 128Свернуть


    Скриншоты
    [screen]http://i91.fastpic.ru/big/2017/0920/21/60b6dd0fd98f81a2a689e4b2ab4ed121.png[/screen][screen]http://i91.fastpic.ru/big/2017/0920/b1/0fe939983568c3b1532d3a987d8c61b1.png[/screen][screen]http://i91.fastpic.ru/big/2017/0920/a7/65dc8783ff71f814ed7fa1c4cc5433a7.png[/screen][screen]http://i91.fastpic.ru/big/2017/0920/b8/69173be4598f5e6eb4a8393956cc5cb8.png[/screen][screen]http://i91.fastpic.ru/big/2017/0920/1e/0f93e47253d9c6d475e0e7f4600b971e.png[/screen][screen]http://i91.fastpic.ru/big/2017/0920/cf/cd413089c89d86d98eadf5b90a675fcf.png[/screen]Свернуть
    Похожие раздачи Искать похожие
    Инструкция по скачиванию
     1  Качаем uTorrent версии 2.0 и выше
     2  После установки, жмем выше под постером на ссылку Скачать [MediaGet] или Скачать .torrent
     3  Открываем скачанный файл через соответствующий клиент: MediaGet или uTorrent
     4  Ждем пока подключатся участники
     5  Качаем
    Комментарии о  Лунатики / Sleepwalkers | HDRip 
    Ближайшее в кино
    Вверх