• Игры для PS4
  • Игры для PS3
  • Игры для XBOX360
  • Игры для PC
  • Игры для PS2
  • Игры для PSP
  • Для телефонов
  • Музыка
  • Книги / Журналы
  • Обои
  • Опрос
    Удобен ли сайт в использовании?
      0
    • Очень удобен, все понятно1,1,false,300,full
    • Удобен1,2,false,300,full
    • Средне1,3,false,300,full
    • Неудобен, трудно ориентироваться1,4,false,300,full
    • Совсем неудобен1,5,false,300,full
    Статистика
    Всего онлайн -
    Гостей -
    Пользователей -
    Короли трекера
    
    Благодарности () Закрыть
    Информация о фильме
    Название: Хэнкок
    Оригинальное название: Hancock
    Год выхода: 2008
    Жанр:  фантастика, боевик, драма
    Режиссер: Питер Берг
    В ролях: Уилл Смит, Шарлиз Терон, Джейсон Бейтман, Джей Хед, Эдди Марсан, Дэвид Мэтти, Метрикс Фиттен, Томас Леннон, Джонни Галэки, Хейли Норман

    О фильме:
    Есть герои, есть супергерои, и есть Хэнкок. Обладание сверхспособностями предполагает ответственность, все знают это — кроме него. За любую задачу он берётся с душой и лучшими намерениями, спасает жизни людей — ценой нечеловеческих разрушений и неисчислимого ущерба. В конце концов, терпение общественности подходит к концу: люди благодарны своему местному герою, но иногда не понимают, чем заслужили такое наказание.

    Хэнкок не из тех парней, кого волнует какое-то там общественное мнение, но однажды, после очередного подвига, спасая высокопоставленного пиарщика Рэя, он вдруг понимает, что в некотором смысле он может быть уязвим. С этим трудно смириться, особенно по мнению Мэри, жены Рэя, считающей, что Хэнкок попросту безнадежен.



    Страна: США
    Студия: Blue Light, Columbia Pictures, Relativity Media, Weed Road Pictures
    Продолжительность: 01:32:24
    Перевод: Профессиональный (дублированный) Blu-ray CEE

    Файл
    Качество: WEB-DL 1080p
    Формат: Matroska
    Видео: 1920x1080 at 23.976 fps, MPEG-4 AVC, ~10978 kbps avg
    Аудио#1: Russian: 48 kHz, AC3, 3/2 (L,C,R,l,r) + LFE ch, ~448 kbps avg |Дубляж, Blu-ray CEE|
    Аудио#2: Ukrainian: 48 kHz, AC3, 3/2 (L,C,R,l,r) + LFE ch, ~448 kbps avg |Дубляж, Blu-ray CEE|
    Аудио#3: English: 48 kHz, DTS, 3/2 (L,C,R,l,r) + LFE ch, ~1509 kbps avg
    Аудио#4: English: 48 kHz, EAC3, 3/2 (L,C,R,l,r) + LFE ch, ~640 kbps avg
    Субтитры: Russian, Ukrainian, English

    ***Исходник с Amazon STARZ - периодически появляется логотип.
    ***Релиз - spartanec163.

    Знаете ли Вы, что...
    Первоначально фильм получил рейтинг «R» за то, что герой Смита употребляет алкоголь перед несовершеннолетним и летает в состоянии алкогольного опьянения.
    Фильм был показан на военной базе США на Ближнем Востоке за неделю до его премьеры в США - показ был бесплатным для всех американских военнослужащих на этой базе.
    Имя главного героя появилось в результате ошибки. В оригинале герой Уилла Смита объясняет, что когда он очнулся в больнице, медсестра сказала ему поставить «Джона Хэнкока» на одной из бумаг. Джон Хэнкок - американский государственный деятель, получивший большую известность за особо крупную подпись, поставленную под Декларацией независимости США. В последствии его имя стало нарицательным и значило «поставить подпись» или «расписаться». В российском официальном переводе была указана совсем другая причина появления этих инициалов.
    Сценарий фильма на протяжении десяти лет переходил от одной студии к другой, но никто не решался его воплотить в жизнь. В течение этого времени на главную роль прочили многих известных актеров, среди которых были Джордж Клуни, Бен Аффлек, Мэтт Дэймон и Леонардо ДиКаприо.
    После того как студия «Warner Bros.» отказалась от проекта, им занялась «Sony».
    В одной из сцен Мэри одета в футболку колледжа «Macalester College». Питер Берг закончил данный колледж.
    Кандидатура Дэйва Шапелла рассматривалась на главную роль.
    В некоторые кинотеатры копии фильма доставляли либо под названием «Hidden from Earth», либо «Speak Publicly».
    Изначально фильм должен был называться «Сегодня вечером он придет». Затем его переименовали в «Джона Хэнкока», а после сократили до «Хэнкок».
    Уилл Смит хотел, чтобы Айшвария Рай сыграла Мэри, но ей пришлось отказаться от роли из-за занятости на других проектах.
    Шарлиз Терон и Джейсон Бейтман сыграли супругов в третьем сезоне «Замедленного развития» (2003).
    Винсент Нго написал сценарий фильма в 1996 году. Почти десять лет спустя Винс Джиллигэн переписал сценарий, Джонатан Мостоу должен был поставить фильм, а премьера - состояться в 2007 году.
    Когда Джонатан Мостоу покинул проект в мае 2006 года, режиссером назначили Габриэле Муччино, который в то время занимался монтажом «В погоне за счастьем» (2006), где также сыграл Уилл Смит. «Хэнкок» должен был стать их следующим совместным проектом, однако Смит решил сначала сделать «Я - легенда» (2007). В октябре 2006 года Габриэле покинул проект из-за творческих разногласий.
    На пост режиссера также рассматривались Майкл Манн и Тони Скотт.
    В фильме содержится 525 кадров со спецэффектами.
    В сцене, где Рэй впервые объясняет свое видение PR-кампании, членов совета директоров сыграли различные голливудские продюсеры, среди которых Акива Голдсман и Майкл Манн.
    Питер Берг, режиссер фильма, сыграл одного из врачей, которые борются за жизнь Мэри.Свернуть




    MediaInfo
    Общее
    Уникальный идентификатор                 : 220590723357206619138591529666575596470 (0xA5F43A5B5FF1A402AF035EE8611FFBB6)
    Полное имя                               : Hancock.2008.Theatrical.Cut.Open.Matte.1080p.WEB-DL.Rus.Ukr.Eng.mkv
    Формат                                   : Matroska
    Версия формата                           : Version 4 / Version 2
    Размер файла                             : 9,05 Гбайт
    Продолжительность                        : 1 ч. 32 м.
    Режим общего битрейта                    : Переменный
    Общий поток                              : 14,0 Мбит/сек
    Название фильма                          : Release by spartanec163
    Дата кодирования                         : UTC 2017-07-15 06:20:49
    Программа кодирования                    : mkvmerge v8.3.0 ("Over the Horizon") 64bit
    Библиотека кодирования                   : libebml v1.3.1 + libmatroska v1.4.2

    Видео
    Идентификатор                            : 1
    Формат                                   : AVC
    Формат/Информация                        : Advanced Video Codec
    Профиль формата                          : High@L4.0
    Параметр CABAC формата                   : Да
    Параметр ReFrames формата                : 4 кадра
    Идентификатор кодека                     : V_MPEG4/ISO/AVC
    Продолжительность                        : 1 ч. 32 м.
    Вид битрейта                             : Переменный
    Битрейт                                  : 10,7 Мбит/сек
    Максимальный битрейт                     : 15,0 Мбит/сек
    Ширина                                   : 1920 пикселей
    Высота                                   : 1080 пикселей
    Соотношение сторон                       : 16:9
    Режим частоты кадров                     : Постоянный
    Частота кадров                           : 23,976 кадра/сек
    Цветовое пространство                    : YUV
    Субдискретизация насыщенности            : 4:2:0
    Битовая глубина                          : 8 бит
    Тип развёртки                            : Прогрессивная
    Бит/(Пиксели*Кадры)                      : 0.215
    Размер потока                            : 6,91 Гбайт (76%)
    Заголовок                                : WEB-DL 1080p (Amazon)
    Язык                                     : English
    Default                                  : Да
    Forced                                   : Нет
    Основные цвета                           : BT.709
    Характеристики трансфера                 : BT.709
    Коэффициенты матрицы                     : BT.709

    Аудио #1
    Идентификатор                            : 2
    Формат                                   : AC-3
    Формат/Информация                        : Audio Coding 3
    Расширение режима                        : CM (complete main)
    Параметр Endianness формата              : Big
    Идентификатор кодека                     : A_AC3
    Продолжительность                        : 1 ч. 32 м.
    Вид битрейта                             : Постоянный
    Битрейт                                  : 448 Кбит/сек
    Каналы                                   : 6 каналов
    Расположение каналов                     : Front: L C R, Side: L R, LFE
    Частота                                  : 48,0 КГц
    Битовая глубина                          : 16 бит
    Метод сжатия                             : С потерями
    Размер потока                            : 296 Мбайт (3%)
    Заголовок                                : AC3 5.1 448Kbps (Дубляж, BluRay CEE)
    Язык                                     : Russian
    Default                                  : Да
    Forced                                   : Нет

    Аудио #2
    Идентификатор                            : 3
    Формат                                   : AC-3
    Формат/Информация                        : Audio Coding 3
    Расширение режима                        : CM (complete main)
    Параметр Endianness формата              : Big
    Идентификатор кодека                     : A_AC3
    Продолжительность                        : 1 ч. 32 м.
    Вид битрейта                             : Постоянный
    Битрейт                                  : 448 Кбит/сек
    Каналы                                   : 6 каналов
    Расположение каналов                     : Front: L C R, Side: L R, LFE
    Частота                                  : 48,0 КГц
    Битовая глубина                          : 16 бит
    Метод сжатия                             : С потерями
    Размер потока                            : 296 Мбайт (3%)
    Заголовок                                : AC3 5.1 448Kbps (Дубляж, BluRay CEE)
    Язык                                     : Ukrainian
    Default                                  : Нет
    Forced                                   : Нет

    Аудио #3
    Идентификатор                            : 4
    Формат                                   : DTS
    Формат/Информация                        : Digital Theater Systems
    Режим                                    : 16
    Параметр Endianness формата              : Big
    Идентификатор кодека                     : A_DTS
    Продолжительность                        : 1 ч. 32 м.
    Вид битрейта                             : Постоянный
    Битрейт                                  : 1509 Кбит/сек
    Каналы                                   : 6 каналов
    Расположение каналов                     : Front: L C R, Side: L R, LFE
    Частота                                  : 48,0 КГц
    Битовая глубина                          : 24 бит
    Метод сжатия                             : С потерями
    Размер потока                            : 997 Мбайт (11%)
    Заголовок                                : DTS 5.1 1536Kbps (Оригинал, BluRay CEE)
    Язык                                     : English
    Default                                  : Нет
    Forced                                   : Нет

    Аудио #4
    Идентификатор                            : 5
    Формат                                   : E-AC-3
    Формат/Информация                        : Audio Coding 3
    Параметр Endianness формата              : Big
    Идентификатор кодека                     : A_EAC3
    Продолжительность                        : 1 ч. 32 м.
    Вид битрейта                             : Постоянный
    Битрейт                                  : 640 Кбит/сек
    Каналы                                   : 6 каналов
    Расположение каналов                     : Front: L C R, Side: L R, LFE
    Частота                                  : 48,0 КГц
    Метод сжатия                             : С потерями
    Размер потока                            : 423 Мбайт (5%)
    Заголовок                                : E-AC3 5.1 640Kbps (Оригинал, Amazon)
    Язык                                     : English
    Default                                  : Нет
    Forced                                   : Нет

    Текст #1
    Идентификатор                            : 6
    Формат                                   : UTF-8
    Идентификатор кодека                     : S_TEXT/UTF8
    Идентификатор кодека/Информация          : UTF-8 Plain Text
    Заголовок                                : Forced
    Язык                                     : Russian
    Default                                  : Да
    Forced                                   : Нет

    Текст #2
    Идентификатор                            : 7
    Формат                                   : UTF-8
    Идентификатор кодека                     : S_TEXT/UTF8
    Идентификатор кодека/Информация          : UTF-8 Plain Text
    Заголовок                                : Full
    Язык                                     : Russian
    Default                                  : Нет
    Forced                                   : Нет

    Текст #3
    Идентификатор                            : 8
    Формат                                   : UTF-8
    Идентификатор кодека                     : S_TEXT/UTF8
    Идентификатор кодека/Информация          : UTF-8 Plain Text
    Заголовок                                : Forced
    Язык                                     : Ukrainian
    Default                                  : Нет
    Forced                                   : Нет

    Текст #4
    Идентификатор                            : 9
    Формат                                   : UTF-8
    Идентификатор кодека                     : S_TEXT/UTF8
    Идентификатор кодека/Информация          : UTF-8 Plain Text
    Заголовок                                : Forced
    Язык                                     : English
    Default                                  : Нет
    Forced                                   : Нет

    Текст #5
    Идентификатор                            : 10
    Формат                                   : UTF-8
    Идентификатор кодека                     : S_TEXT/UTF8
    Идентификатор кодека/Информация          : UTF-8 Plain Text
    Заголовок                                : Full
    Язык                                     : English
    Default                                  : Нет
    Forced                                   : НетСвернуть


    Скриншоты
    [screen]http://img12.lostpic.net/2017/09/20/5f4a1e5b8ea4469d866096589d66a20e.png[/screen][screen]http://img12.lostpic.net/2017/09/20/adff6244b6784c6bb58a80ca2108d7c4.png[/screen][screen]http://img12.lostpic.net/2017/09/20/40408bb55382fb86c6f4796b68e56985.png[/screen][screen]http://img12.lostpic.net/2017/09/20/87884dee83ebde80e5c55623ed0d1549.png[/screen]Свернуть
    Похожие раздачи Искать похожие
    Инструкция по скачиванию
     1  Качаем uTorrent версии 2.0 и выше
     2  После установки, жмем выше под постером на ссылку Скачать [MediaGet] или Скачать .torrent
     3  Открываем скачанный файл через соответствующий клиент: MediaGet или uTorrent
     4  Ждем пока подключатся участники
     5  Качаем
    Комментарии о  Хэнкок / Hancock | WEB-DL 1080p 
    Ближайшее в кино
    Вверх