• Игры для PS4
  • Игры для PS3
  • Игры для XBOX360
  • Игры для PC
  • Игры для PS2
  • Игры для PSP
  • Для телефонов
  • Музыка
  • Книги/Журналы
  • Обои
  •  
    Опрос
    Откуда Вы о нас узнали?
      0
    • От знакомых2,1,false,300,full
    • Из социальных сетей2,2,false,300,full
    • Из поисковых систем2,3,false,300,full
    • Другое2,4,false,300,full
    Статистика
    Загрузка...
    Сияние / The Shining | BDRip-HEVC 1080p
    Статус  Проверено
    В закладки
    Модератор: Max

    Сияние / The Shining | BDRip-HEVC 1080p [Фильмы 1980] скачать торрентом/torrent бесплатно

    Год выхода
    Категории
    Язык
    Закачал
    Аноним | 20 сентября 2017 в 21ч 04м 53с
    Раздел
    Отзывов
    0
    Раздают: 41 Качают: 8 Скачали: 59 Размер: 8.83 GB
    Инфо о раздаче | Благодарности |
    0/5
    0
    0 5 0
    Поддержи нас — расскажи друзьям!
    Orbitum
    Новый интернет-браузер Быстрее загружает сайты Экономит интернет—трафик Меняет оформление страницы ВК Блокирует всю рекламу на сайтах Загружает торренты как

    µTorrent

    клиент
    Объеденяет все твои чаты из соц. сетей в один Проигрывает твою музыку не заходя во ВКонтакте
    Скачать и многое другое... Подробности на сайте производителя
    Информация о фильме
    Название: Сияние
    Оригинальное название: The Shining
    Год выхода: 1980
    Жанр: Триллер, ужасы
    Режиссер: Стэнли Кубрик
    В ролях: Джек Николсон, Шелли Дюволл, Дэнни Ллойд, Скэтман Крозерс, Энн Джексон, Тони Бертон, Барри Нелсон, Филип Стоун, Джо Теркел

    О фильме:
    Джек Торренс, приехал в элегантный уединенный отель, чтобы поработать смотрителем во время мертвого сезона вместе со своей женой и сыном. Торренс здесь раньше никогда не бывал. Или это не совсем так? Ответ лежит во мраке, сотканном из преступного кошмара.
    [img]http://www.kinopoisk.ru/rating/409.gif[/img]

    Страна: США
    Студия: Warner Bros.
    Продолжительность: 02:23:46
    Перевод: Профессиональный многоголосый, профессиональный двухголосый, авторский одноголосый

    Файл
    Кодек: HEVC x265 10 bit
    Качество: BDRip-HEVC 1080p
    Видео: 1920x1080 (16:9), 6103 Кбит/сек, 0.123 бит/(Пиксели*Кадры), 23,976 кадр/сек (24000/1001), HEVC (Main10@L.5.1@High) 10 бит
    Звук:
    Русская, AC3, 448 kb/s, Front: L C R, Side: L R, LFE, 48.0 kHz (MVO Киномания)
    Русская, AC3, 448 kb/s, Front: L C R, Side: L R, LFE, 48.0 kHz (AVO Гаврилов)
    Русская, AC3, 448 kb/s, Front: L C R, Side: L R, LFE, 48.0 kHz (DVO Пётр Гланц и Инна Королёва)
    Русская, AC3, 448 kb/s, Front: L C R, Side: L R, LFE, 48.0 kHz (AVO Алексей "Doctor_Joker" Матвеев)
    Русская, AC3, 448 kb/s, Front: L C R, Side: L R, LFE, 48.0 kHz (AVO Дмитрий Есарев)
    Английская, AC3, 448 kb/s, Front: L C R, Side: L R, LFE, 48.0 kHz (Оригинал)
    Субтитры: Русские, английские
    Разделение по главам: есть

    Семпл
    MediaInfo

    General
    Unique ID                   : 239380636574654851457359369916851076807 (0xB417089A9214B358A57A50E26A42BEC7)
    Complete name               : I:HEVC 2The Shining_1980_BDRip_1080p_[HEVC].mkv
    Format                      : Matroska
    Format version              : Version 4 / Version 2
    File size                   : 8.83 GiB
    Duration                    : 2 h 23 min
    Overall bit rate            : 8 794 kb/s
    Encoded date                : UTC 2017-09-20 10:36:50
    Writing application         : mkvmerge v9.9.0 ("Pick Up") 64bit
    Writing library             : libebml v1.3.4 + libmatroska v1.4.5
    Cover                       : Yes
    Attachments                 : cover.png

    Video
    ID                          : 1
    Format                      : HEVC
    Format/Info                 : High Efficiency Video Coding
    Format profile              : Main 10@L5.1@High
    Codec ID                    : V_MPEGH/ISO/HEVC
    Duration                    : 2 h 23 min
    Bit rate                    : 6 103 kb/s
    Width                       : 1 920 pixels
    Height                      : 1 080 pixels
    Display aspect ratio        : 16:9
    Frame rate mode             : Constant
    Frame rate                  : 23.976 (24000/1001) FPS
    Color space                 : YUV
    Chroma subsampling          : 4:2:0
    Bit depth                   : 10 bits
    Bits/(Pixel*Frame)          : 0.123
    Stream size                 : 6.13 GiB (69%)
    Writing library             : x265 2.5+6-d11482e5fedb:[Windows][GCC 7.1.0][64 bit] 10bit
    Encoding settings           : cpuid=1173503 / frame-threads=4 / numa-pools=16 / wpp / no-pmode / no-pme / no-psnr / no-ssim / log-level=2 / input-csp=1 / input-res=1920x1080 / interlace=0 / total-frames=0 / level-idc=51 / high-tier=1 / uhd-bd=0 / ref=5 / no-allow-non-conformance / no-repeat-headers / annexb / no-aud / no-hrd / info / hash=0 / no-temporal-layers / open-gop / min-keyint=23 / keyint=240 / bframes=8 / b-adapt=2 / b-pyramid / bframe-bias=0 / rc-lookahead=40 / lookahead-slices=4 / scenecut=40 / no-intra-refresh / ctu=32 / min-cu-size=8 / rect / no-amp / max-tu-size=32 / tu-inter-depth=2 / tu-intra-depth=2 / limit-tu=4 / rdoq-level=1 / dynamic-rd=0.00 / no-ssim-rd / signhide / no-tskip / nr-intra=0 / nr-inter=0 / no-constrained-intra / strong-intra-smoothing / max-merge=3 / limit-refs=3 / limit-modes / me=2 / subme=6 / merange=32 / temporal-mvp / weightp / weightb / no-analyze-src-pics / deblock=-3:-3 / no-sao / no-sao-non-deblock / rd=5 / no-early-skip / rskip / no-fast-intra / no-tskip-fast / no-cu-lossless / no-b-intra / rdpenalty=0 / psy-rd=2.00 / psy-rdoq=3.00 / no-rd-refine / analysis-reuse-mode=0 / no-lossless / cbqpoffs=0 / crqpoffs=0 / rc=crf / crf=19.5 / qcomp=0.60 / qpstep=4 / stats-write=0 / stats-read=0 / vbv-maxrate=160000 / vbv-bufsize=160000 / vbv-init=0.9 / crf-max=0.0 / crf-min=0.0 / ipratio=1.40 / pbratio=1.30 / aq-mode=1 / aq-strength=0.80 / cutree / zone-count=1 / zones: / start-frame=203250 / end-frame=206820 / qp=35 / no-strict-cbr / qg-size=32 / no-rc-grain / qpmax=69 / qpmin=0 / no-const-vbv / sar=0 / overscan=0 / videoformat=5 / range=0 / colorprim=2 / transfer=2 / colormatrix=1 / chromaloc=0 / display-window=0 / max-cll=0,0 / min-luma=0 / max-luma=1023 / log2-max-poc-lsb=8 / vui-timing-info / vui-hrd-info / slices=1 / opt-qp-pps / opt-ref-list-length-pps / no-multi-pass-opt-rps / scenecut-bias=0.05 / no-opt-cu-delta-qp / aq-motion / no-hdr / no-hdr-opt / no-dhdr10-opt / analysis-reuse-level=5 / scale-factor=0 / refine-intra=0 / refine-inter=0 / refine-mv=0 / no-limit-sao / ctu-info=0
    Default                     : Yes
    Forced                      : Yes
    Color range                 : Limited
    Matrix coefficients         : BT.709

    Audio #1
    ID                          : 2
    Format                      : AC-3
    Format/Info                 : Audio Coding 3
    Format settings, Endianness : Big
    Codec ID                    : A_AC3
    Duration                    : 2 h 23 min
    Bit rate mode               : Constant
    Bit rate                    : 448 kb/s
    Channel(s)                  : 6 channels
    Channel positions           : Front: L C R, Side: L R, LFE
    Sampling rate               : 48.0 kHz
    Frame rate                  : 31.250 FPS (1536 spf)
    Bit depth                   : 16 bits
    Compression mode            : Lossy
    Stream size                 : 461 MiB (5%)
    Title                       : MVO [Киномания]
    Language                    : Russian
    Service kind                : Complete Main
    Default                     : Yes
    Forced                      : No

    Audio #2
    ID                          : 3
    Format                      : AC-3
    Format/Info                 : Audio Coding 3
    Format settings, Endianness : Big
    Codec ID                    : A_AC3
    Duration                    : 2 h 23 min
    Bit rate mode               : Constant
    Bit rate                    : 448 kb/s
    Channel(s)                  : 6 channels
    Channel positions           : Front: L C R, Side: L R, LFE
    Sampling rate               : 48.0 kHz
    Frame rate                  : 31.250 FPS (1536 spf)
    Bit depth                   : 16 bits
    Compression mode            : Lossy
    Stream size                 : 461 MiB (5%)
    Title                       : Андрей Гаврилов
    Language                    : Russian
    Service kind                : Complete Main
    Default                     : No
    Forced                      : No

    Audio #3
    ID                          : 4
    Format                      : AC-3
    Format/Info                 : Audio Coding 3
    Format settings, Endianness : Big
    Codec ID                    : A_AC3
    Duration                    : 2 h 23 min
    Bit rate mode               : Constant
    Bit rate                    : 448 kb/s
    Channel(s)                  : 6 channels
    Channel positions           : Front: L C R, Side: L R, LFE
    Sampling rate               : 48.0 kHz
    Frame rate                  : 31.250 FPS (1536 spf)
    Bit depth                   : 16 bits
    Compression mode            : Lossy
    Stream size                 : 461 MiB (5%)
    Title                       : Пётр Гланц и Инна Королёва
    Language                    : Russian
    Service kind                : Complete Main
    Default                     : No
    Forced                      : No

    Audio #4
    ID                          : 5
    Format                      : AC-3
    Format/Info                 : Audio Coding 3
    Format settings, Endianness : Big
    Codec ID                    : A_AC3
    Duration                    : 2 h 23 min
    Bit rate mode               : Constant
    Bit rate                    : 448 kb/s
    Channel(s)                  : 6 channels
    Channel positions           : Front: L C R, Side: L R, LFE
    Sampling rate               : 48.0 kHz
    Frame rate                  : 31.250 FPS (1536 spf)
    Bit depth                   : 16 bits
    Compression mode            : Lossy
    Stream size                 : 461 MiB (5%)
    Title                       : Алексей "Doctor_Joker" Матвеев
    Language                    : Russian
    Service kind                : Complete Main
    Default                     : No
    Forced                      : No

    Audio #5
    ID                          : 6
    Format                      : AC-3
    Format/Info                 : Audio Coding 3
    Format settings, Endianness : Big
    Codec ID                    : A_AC3
    Duration                    : 2 h 23 min
    Bit rate mode               : Constant
    Bit rate                    : 448 kb/s
    Channel(s)                  : 6 channels
    Channel positions           : Front: L C R, Side: L R, LFE
    Sampling rate               : 48.0 kHz
    Frame rate                  : 31.250 FPS (1536 spf)
    Bit depth                   : 16 bits
    Compression mode            : Lossy
    Stream size                 : 461 MiB (5%)
    Title                       : Дмитрий Есарев
    Language                    : Russian
    Service kind                : Complete Main
    Default                     : No
    Forced                      : No

    Audio #6
    ID                          : 7
    Format                      : AC-3
    Format/Info                 : Audio Coding 3
    Format settings, Endianness : Big
    Codec ID                    : A_AC3
    Duration                    : 2 h 23 min
    Bit rate mode               : Constant
    Bit rate                    : 448 kb/s
    Channel(s)                  : 6 channels
    Channel positions           : Front: L C R, Side: L R, LFE
    Sampling rate               : 48.0 kHz
    Frame rate                  : 31.250 FPS (1536 spf)
    Bit depth                   : 16 bits
    Compression mode            : Lossy
    Stream size                 : 461 MiB (5%)
    Language                    : English
    Service kind                : Complete Main
    Default                     : No
    Forced                      : No

    Text #1
    ID                          : 8
    Format                      : UTF-8
    Codec ID                    : S_TEXT/UTF8
    Codec ID/Info               : UTF-8 Plain Text
    Duration                    : 2 h 19 min
    Bit rate                    : 67 b/s
    Count of elements           : 1469
    Stream size                 : 68.7 KiB (0%)
    Title                       : Киномания
    Language                    : Russian
    Default                     : Yes
    Forced                      : No

    Text #2
    ID                          : 9
    Format                      : UTF-8
    Codec ID                    : S_TEXT/UTF8
    Codec ID/Info               : UTF-8 Plain Text
    Duration                    : 2 h 20 min
    Bit rate                    : 67 b/s
    Count of elements           : 1432
    Stream size                 : 69.7 KiB (0%)
    Title                       : Uncle KiLler
    Language                    : Russian
    Default                     : No
    Forced                      : No

    Text #3
    ID                          : 10
    Format                      : UTF-8
    Codec ID                    : S_TEXT/UTF8
    Codec ID/Info               : UTF-8 Plain Text
    Duration                    : 2 h 14 min
    Bit rate                    : 40 b/s
    Count of elements           : 1301
    Stream size                 : 39.7 KiB (0%)
    Language                    : English
    Default                     : No
    Forced                      : No

    Menu
    00:00:00.000                : :Drive to the Overlook
    00:03:00.847                : :The Interview
    00:05:05.638                : :Quite a Story
    00:10:34.467                : :Bloody Vision
    00:12:07.893                : :The Doctor"s Questions
    00:14:24.697                : :Family History
    00:17:38.390                : :Closing Day
    00:20:31.230                : :The Tour
    00:24:58.997                : :Doc Gets The Message
    00:28:52.063                : :Talk of Shining - and Room 237
    00:34:10.547                : :A Month Later: Bouncing and Exploring
    00:40:29.260                : :Tuesday: Curiosity for Danny, Rules for Wendy
    00:46:01.425                : :Thursday: Snowbound
    00:46:52.643                : :Saturday: Slipping Out of Touch
    00:49:17.788                : :Come and Play
    00:51:16.573                : :Monday: "I Love You, Danny"
    00:57:02.252                : :Wednesday: Room 237 Beckons
    00:58:37.180                : :Nightmares and Neck Wounds
    01:02:37.587                : :The Gold Room
    01:06:06.128                : :Words of Wisdom
    01:09:01.136                : :Halloran Shines; Jack Rages
    01:16:52.774                : :Danny Shines; Jack Rages
    01:22:19.100                : :The Party
    01:25:30.291                : :Delbert Grady
    01:31:41.496                : :"Redrum! Danny"s Not Here"
    01:34:04.305                : :Sabotage
    01:35:49.076                : :Halloran Flies In
    01:39:30.965                : :All Work and No Play
    01:43:50.390                : :What Should Be Done With Danny
    01:49:26.893                : :Jack In Storage; Wendy In A Frenzy
    01:54:24.858                : :Grady Intervenes; Halloran en Route
    01:58:45.118                : :"Redrum!"
    02:01:09.929                : :"Here"s Johnny"
    02:05:30.523                : :On The Prowl
    02:07:33.145                : :Halloran Killed
    02:10:23.982                : :Into The Maze
    02:12:10.422                : :"Great Party, Isn"t It?"
    02:15:03.762                : :Escape
    02:18:57.495                : :The Overlook Claims Jack
    02:21:17.968                : :End Credits


    Скриншоты
    [img]http://i89.fastpic.ru/thumb/2017/0920/b7/_e5a66509ee884100b06596ebbbac93b7.jpeg[/img][img]http://i89.fastpic.ru/thumb/2017/0920/d2/_44551bef8dd4f2e63f8e8f9c192e96d2.jpeg[/img][img]http://i89.fastpic.ru/thumb/2017/0920/fe/_891e34499aa7cb7e91b76d98a9d3d8fe.jpeg[/img][img]http://i89.fastpic.ru/thumb/2017/0920/4f/_7820db8d88666a5977bd1d1412b5ff4f.jpeg[/img][img]http://i89.fastpic.ru/thumb/2017/0920/1b/_4b69aae04c58af8d97740f02df42481b.jpeg[/img][img]http://i89.fastpic.ru/big/2017/0920/d2/343d61459ad12a6bb3e2e1fe36b6b0d2.png[/img][img]http://i89.fastpic.ru/thumb/2017/0920/7c/_cfe7aec215630fb1211b85da106d847c.jpeg[/img][img]http://i89.fastpic.ru/big/2017/0920/61/95bbd8dc5aeb0cd6e7ef3ac4cdd5f061.png[/img][img]http://i89.fastpic.ru/big/2017/0920/c2/b811c315a872b1c59038fe5d4f4679c2.png[/img][img]http://i89.fastpic.ru/big/2017/0920/f9/0d3170b39bb6af55de8dfd72c198e4f9.png[/img][img]http://i89.fastpic.ru/big/2017/0920/f0/cb2156f19dc095f840513f082af3e8f0.png[/img][img]http://i89.fastpic.ru/thumb/2017/0920/f3/_495726a7d206c9f41b255f6592a71ff3.jpeg[/img]


    Еще похожие »

    Как скачать?
    1. Качаем UTorrent версии 2.0 и выше отсюда
    2. После установки, жмем на ссылку Скачать торрент.
    3. Открываем его через utorrent.
    4. Ждем пока подключатся участники.
    5. Качаем.


    Комментарии о Сияние / The Shining | BDRip-HEVC 1080p
    Добавлять комментарии могут только зарегистрированные пользователи

    Зарегистрироваться или Войти


    Ближайшее в кино
    • Аллилуйя! дата выхода 13 ноября 2018Аллилуйя!
      Дата выхода: 13 ноября 2018
    • 1199695|Coldplay: A Head Full of Dreams|14 ноября 2018|200|300Coldplay: A Head Full of Dreams
      Дата выхода: 14 ноября 2018
    • 843479|Фантастические твари: Преступления Грин-де-Вальда|15 ноября 2018|200|300Фантастические твари: Преступления Грин-де-Вальда
      Дата выхода: 15 ноября 2018
    • 1070264|Догмэн|15 ноября 2018|200|300Догмэн
      Дата выхода: 15 ноября 2018
    • 1068448|Оцепеневшие от страха|15 ноября 2018|200|300Оцепеневшие от страха
      Дата выхода: 15 ноября 2018
    • 1065878|Холодная война|15 ноября 2018|200|300Холодная война
      Дата выхода: 15 ноября 2018
    • 933787|Не чужие|15 ноября 2018|200|300Не чужие
      Дата выхода: 15 ноября 2018
    • 1045040|Облепиховое лето|15 ноября 2018|200|300Облепиховое лето
      Дата выхода: 15 ноября 2018
    • 1085625|Соната|15 ноября 2018|200|300Соната
      Дата выхода: 15 ноября 2018
    • 1174349|Безумие Георга III|20 ноября 2018|200|300Безумие Георга III
      Дата выхода: 20 ноября 2018
    • 7226|Догвилль|22 ноября 2018|200|300Догвилль
      Дата выхода: 22 ноября 2018
    • 1009784|Апгрейд|22 ноября 2018|200|300Апгрейд
      Дата выхода: 22 ноября 2018
    • 988782|Ральф против интернета|22 ноября 2018|200|300Ральф против интернета
      Дата выхода: 22 ноября 2018
    • 965901|Вдовы|22 ноября 2018|200|300Вдовы
      Дата выхода: 22 ноября 2018
    • 1011685|Нация убийц|22 ноября 2018|200|300Нация убийц
      Дата выхода: 22 ноября 2018
    Вверх