• Игры для PS4
  • Игры для PS3
  • Игры для XBOX360
  • Игры для PC
  • Игры для PS2
  • Игры для PSP
  • Для телефонов
  • Музыка
  • Книги/Журналы
  • Обои
  •  
    Опрос
    Откуда Вы о нас узнали?
      0
    • От знакомых2,1,false,300,full
    • Из социальных сетей2,2,false,300,full
    • Из поисковых систем2,3,false,300,full
    • Другое2,4,false,300,full
    Статистика
    Загрузка...
    Последний киногерой / Last Action Hero | BDRip-HEVC 1080p
    Статус  Проверено
    В закладки
    Модератор: Max

    Последний киногерой / Last Action Hero | BDRip-HEVC 1080p [Фильмы 1993] скачать торрентом/torrent бесплатно

    Год выхода
    Язык
    Закачал
    Max | 20 сентября 2017 в 21ч 05м 11с
    Раздел
    Отзывов
    0
    Раздают: 5 Качают: 0 Скачали: 8 Размер: 8.95 GB
    Инфо о раздаче | Благодарности |
    0/5
    0
    0 5 0
    Поддержи нас — расскажи друзьям!
    Orbitum
    Новый интернет-браузер Быстрее загружает сайты Экономит интернет—трафик Меняет оформление страницы ВК Блокирует всю рекламу на сайтах Загружает торренты как

    µTorrent

    клиент
    Объеденяет все твои чаты из соц. сетей в один Проигрывает твою музыку не заходя во ВКонтакте
    Скачать и многое другое... Подробности на сайте производителя
    Информация о фильме
    Название: Последний киногерой
    Оригинальное название: Last Action Hero
    Год выхода: 1993
    Жанр: фэнтези, боевик, комедия, приключения, семейный
    Режиссер: Джон МакТирнан
    В ролях: Арнольд Шварценеггер, Ф. Мюррэй Абрахам, Остин О’Брайен, Арт Карни, Чарльз Дэнс, Фрэнк МакРей, Том Нунен, Роберт Проски, Энтони Куинн, Мерседес Рул

    О фильме:
    Юному киноману Дэнни Мэдигану достается волшебный билет, который переносит его на другую сторону экрана. Мальчик оказывается рядом со своим любимым персонажем, знаменитым полицейским Джеком Слэйтером, и становится полноправным участником всех событий напряженного боевика.
    Впереди напарников ждет самое страшное испытание: Джек и Дэнни попадают в реальный мир, где непобедимый герой теряет свою фантастическую силу, и теперь он может погибнуть, как любой смертный. А для настоящих преступников непревзойденный супермен — всего лишь очередная мишень…
    [img]http://www.kinopoisk.ru/rating/3513.gif[/img]

    Страна: США
    Продолжительность: 02:10:54
    Перевод: Профессиональный (многоголосый, закадровый)

    Файл
    Кодек: HEVC x265 10 bit
    Качество: BDRip-HEVC 1080p
    Видео: 1920x800 (2,40:1), 8858 Кбит/сек, 0.241 бит/(Пиксели*Кадры), 23,976 кадр/сек (24000/1001), HEVC (Main10@L.5.1@High) 10 бит
    Звук:
    Русская, AC3, 448 kb/s, Front: L C R, Side: L R, LFE, 48.0 kHz (MVO Blu-ray CEE)
    Английская, AC3, 448 kb/s, Front: L C R, Side: L R, LFE, 48.0 kHz (Оригинал)
    Субтитры: Русские, английские
    Разделение по главам: есть

    Семпл
    MediaInfo

    General
    Unique ID                   : 236813047781922276228556123564192631180 (0xB22888B3DCBFE1538E6B89EDE27D098C)
    Complete name               : I:HEVC 210 BITLast Action Hero_1993_BDRip_1080p_[HEVC].mkv
    Format                      : Matroska
    Format version              : Version 4 / Version 2
    File size                   : 8.95 GiB
    Duration                    : 2 h 10 min
    Overall bit rate            : 9 792 kb/s
    Encoded date                : UTC 2017-09-20 11:41:47
    Writing application         : mkvmerge v9.9.0 ("Pick Up") 64bit
    Writing library             : libebml v1.3.4 + libmatroska v1.4.5
    Cover                       : Yes
    Attachments                 : cover.png

    Video
    ID                          : 1
    Format                      : HEVC
    Format/Info                 : High Efficiency Video Coding
    Format profile              : Main 10@L5.1@High
    Codec ID                    : V_MPEGH/ISO/HEVC
    Duration                    : 2 h 10 min
    Bit rate                    : 8 858 kb/s
    Width                       : 1 920 pixels
    Height                      : 800 pixels
    Display aspect ratio        : 2.40:1
    Frame rate mode             : Constant
    Frame rate                  : 23.976 (24000/1001) FPS
    Color space                 : YUV
    Chroma subsampling          : 4:2:0
    Bit depth                   : 10 bits
    Bits/(Pixel*Frame)          : 0.241
    Stream size                 : 8.10 GiB (90%)
    Writing library             : x265 2.5+6-d11482e5fedb:[Windows][GCC 7.1.0][64 bit] 10bit
    Encoding settings           : cpuid=1173503 / frame-threads=4 / numa-pools=16 / wpp / no-pmode / no-pme / no-psnr / no-ssim / log-level=2 / input-csp=1 / input-res=1920x800 / interlace=0 / total-frames=0 / level-idc=51 / high-tier=1 / uhd-bd=0 / ref=5 / no-allow-non-conformance / no-repeat-headers / annexb / no-aud / no-hrd / info / hash=0 / no-temporal-layers / open-gop / min-keyint=23 / keyint=240 / bframes=8 / b-adapt=2 / b-pyramid / bframe-bias=0 / rc-lookahead=40 / lookahead-slices=4 / scenecut=40 / no-intra-refresh / ctu=32 / min-cu-size=8 / rect / no-amp / max-tu-size=32 / tu-inter-depth=2 / tu-intra-depth=2 / limit-tu=4 / rdoq-level=1 / dynamic-rd=0.00 / no-ssim-rd / signhide / no-tskip / nr-intra=0 / nr-inter=0 / no-constrained-intra / strong-intra-smoothing / max-merge=3 / limit-refs=3 / limit-modes / me=2 / subme=6 / merange=32 / temporal-mvp / weightp / weightb / no-analyze-src-pics / deblock=-3:-3 / no-sao / no-sao-non-deblock / rd=5 / no-early-skip / rskip / no-fast-intra / no-tskip-fast / no-cu-lossless / no-b-intra / rdpenalty=0 / psy-rd=2.00 / psy-rdoq=3.00 / no-rd-refine / analysis-reuse-mode=0 / no-lossless / cbqpoffs=0 / crqpoffs=0 / rc=crf / crf=19.3 / qcomp=0.60 / qpstep=4 / stats-write=0 / stats-read=0 / vbv-maxrate=160000 / vbv-bufsize=160000 / vbv-init=0.9 / crf-max=0.0 / crf-min=0.0 / ipratio=1.40 / pbratio=1.30 / aq-mode=1 / aq-strength=0.80 / cutree / zone-count=1 / zones: / start-frame=177837 / end-frame=188328 / qp=35 / no-strict-cbr / qg-size=32 / no-rc-grain / qpmax=69 / qpmin=0 / no-const-vbv / sar=0 / overscan=0 / videoformat=5 / range=0 / colorprim=2 / transfer=2 / colormatrix=1 / chromaloc=0 / display-window=0 / max-cll=0,0 / min-luma=0 / max-luma=1023 / log2-max-poc-lsb=8 / vui-timing-info / vui-hrd-info / slices=1 / opt-qp-pps / opt-ref-list-length-pps / no-multi-pass-opt-rps / scenecut-bias=0.05 / no-opt-cu-delta-qp / aq-motion / no-hdr / no-hdr-opt / no-dhdr10-opt / analysis-reuse-level=5 / scale-factor=0 / refine-intra=0 / refine-inter=0 / refine-mv=0 / no-limit-sao / ctu-info=0
    Default                     : Yes
    Forced                      : Yes
    Color range                 : Limited
    Matrix coefficients         : BT.709

    Audio #1
    ID                          : 2
    Format                      : AC-3
    Format/Info                 : Audio Coding 3
    Format settings, Endianness : Big
    Codec ID                    : A_AC3
    Duration                    : 2 h 10 min
    Bit rate mode               : Constant
    Bit rate                    : 448 kb/s
    Channel(s)                  : 6 channels
    Channel positions           : Front: L C R, Side: L R, LFE
    Sampling rate               : 48.0 kHz
    Frame rate                  : 31.250 FPS (1536 spf)
    Bit depth                   : 16 bits
    Compression mode            : Lossy
    Stream size                 : 419 MiB (5%)
    Language                    : Russian
    Service kind                : Complete Main
    Default                     : Yes
    Forced                      : No

    Audio #2
    ID                          : 3
    Format                      : AC-3
    Format/Info                 : Audio Coding 3
    Format settings, Endianness : Big
    Codec ID                    : A_AC3
    Duration                    : 2 h 10 min
    Bit rate mode               : Constant
    Bit rate                    : 448 kb/s
    Channel(s)                  : 6 channels
    Channel positions           : Front: L C R, Side: L R, LFE
    Sampling rate               : 48.0 kHz
    Frame rate                  : 31.250 FPS (1536 spf)
    Bit depth                   : 16 bits
    Compression mode            : Lossy
    Stream size                 : 419 MiB (5%)
    Language                    : English
    Service kind                : Complete Main
    Default                     : No
    Forced                      : No

    Text #1
    ID                          : 4
    Format                      : PGS
    Codec ID                    : S_HDMV/PGS
    Codec ID/Info               : Picture based subtitle format used on BDs/HD-DVDs
    Duration                    : 2 h 2 min
    Bit rate                    : 37.0 kb/s
    Count of elements           : 10512
    Stream size                 : 32.5 MiB (0%)
    Language                    : English
    Default                     : Yes
    Forced                      : No

    Text #2
    ID                          : 5
    Format                      : PGS
    Codec ID                    : S_HDMV/PGS
    Codec ID/Info               : Picture based subtitle format used on BDs/HD-DVDs
    Duration                    : 59 min 50 s
    Bit rate                    : 139 b/s
    Count of elements           : 32
    Stream size                 : 61.0 KiB (0%)
    Language                    : Russian
    Default                     : No
    Forced                      : No

    Menu
    00:00:00.000                : :Глава 1
    00:08:53.866                : :Глава 2
    00:14:53.767                : :Глава 3
    00:22:30.015                : :Глава 4
    00:30:32.121                : :Глава 5
    00:42:04.647                : :Глава 6
    00:48:14.975                : :Глава 7
    00:52:58.633                : :Глава 8
    00:56:37.602                : :Глава 9
    01:07:04.895                : :Глава 10
    01:13:36.537                : :Глава 11
    01:20:20.941                : :Глава 12
    01:24:14.591                : :Глава 13
    01:40:47.666                : :Глава 14
    01:47:15.095                : :Глава 15
    01:56:03.831                : :Глава 16


    Скриншоты
    [img]http://i92.fastpic.ru/big/2017/0920/8d/73ec6f9ae0fa6ffbe090bd97a52e048d.png[/img][img]http://i92.fastpic.ru/thumb/2017/0920/f8/_5fe432fc94d48680f4a1c450ddbe75f8.jpeg[/img][img]http://i92.fastpic.ru/thumb/2017/0920/a7/_d8adc2fa6b498898175c955e8472b4a7.jpeg[/img][img]http://i92.fastpic.ru/big/2017/0920/95/222652e95f503f7c2362edc5faa32895.png[/img][img]http://i92.fastpic.ru/big/2017/0920/aa/1331a7e51f99a8a8323d15363cc90faa.png[/img][img]http://i92.fastpic.ru/thumb/2017/0920/09/_5b6e99834544004b124053ceb991f409.jpeg[/img][img]http://i92.fastpic.ru/big/2017/0920/a8/390cf1a4e5a6b8ea58494b90307dafa8.png[/img][img]http://i92.fastpic.ru/big/2017/0920/88/c143799c87d1e652d0669ba76b057788.png[/img][img]http://i92.fastpic.ru/big/2017/0920/1c/e7261f85273221a99a696ca856a2671c.png[/img][img]http://i92.fastpic.ru/big/2017/0920/d6/659ebbc1cd96e0c83da98817bcff1bd6.png[/img][img]http://i92.fastpic.ru/big/2017/0920/a2/2440a24e57b4bbad79f0afddb99392a2.png[/img][img]http://i92.fastpic.ru/big/2017/0920/c3/e13023b5c6ddbdedc6c34e3a019d6ac3.png[/img]
    Еще похожие »

    Как скачать?
    1. Качаем UTorrent версии 2.0 и выше отсюда
    2. После установки, жмем на ссылку Скачать торрент.
    3. Открываем его через utorrent.
    4. Ждем пока подключатся участники.
    5. Качаем.


    Комментарии о Последний киногерой / Last Action Hero | BDRip-HEVC 1080p
    Добавлять комментарии могут только зарегистрированные пользователи

    Зарегистрироваться или Войти


    Ближайшее в кино
    • Безумие Георга III дата выхода 20 ноября 2018Безумие Георга III
      Дата выхода: 20 ноября 2018
    • 7226|Догвилль|22 ноября 2018|200|300Догвилль
      Дата выхода: 22 ноября 2018
    • 1009784|Апгрейд|22 ноября 2018|200|300Апгрейд
      Дата выхода: 22 ноября 2018
    • 988782|Ральф против интернета|22 ноября 2018|200|300Ральф против интернета
      Дата выхода: 22 ноября 2018
    • 965901|Вдовы|22 ноября 2018|200|300Вдовы
      Дата выхода: 22 ноября 2018
    • 1011685|Нация убийц|22 ноября 2018|200|300Нация убийц
      Дата выхода: 22 ноября 2018
    • 891414|Жена|22 ноября 2018|200|300Жена
      Дата выхода: 22 ноября 2018
    • 934207|Мотылёк|22 ноября 2018|200|300Мотылёк
      Дата выхода: 22 ноября 2018
    • 1044912|Вечерняя школа|22 ноября 2018|200|300Вечерняя школа
      Дата выхода: 22 ноября 2018
    • 1036188|Быть Астрид Линдгрен|22 ноября 2018|200|300Быть Астрид Линдгрен
      Дата выхода: 22 ноября 2018
    • 1048852|Помешанный на времени|22 ноября 2018|200|300Помешанный на времени
      Дата выхода: 22 ноября 2018
    • 1049775|Подбросы|22 ноября 2018|200|300Подбросы
      Дата выхода: 22 ноября 2018
    • 1108741|Я — миллиардер|22 ноября 2018|200|300Я — миллиардер
      Дата выхода: 22 ноября 2018
    • 1118041|Три лица|22 ноября 2018|200|300Три лица
      Дата выхода: 22 ноября 2018
    • 1209190|МУЛЬТ в кино. Выпуск 85. Мамин праздник|24 ноября 2018|200|300МУЛЬТ в кино. Выпуск 85. Мамин праздник
      Дата выхода: 24 ноября 2018
    Вверх