• Игры для PS4
  • Игры для PS3
  • Игры для XBOX360
  • Игры для PC
  • Игры для PS2
  • Игры для PSP
  • Для телефонов
  • Музыка
  • Книги / Журналы
  • Обои
  • Опрос
    Откуда Вы о нас узнали?
      0
    • От знакомых2,1,false,300,full
    • Из социальных сетей2,2,false,300,full
    • Из поисковых систем2,3,false,300,full
    • Другое2,4,false,300,full
    Статистика
    Всего онлайн -
    Гостей -
    Пользователей -
    Короли трекера
    
    Благодарности () Закрыть
    Название: Джон Дэй
    Оригинальное название: John Day
    Год выпуска: 2013
    Жанр:  Детектив, драма, триллер
    Выпущено: Индия, Shemaroo Entertainmen
    Режиссер: Ахишор Соломон
    В ролях: Рандип Худа, Таран Баджадж, Хэрш Чхая, Бхарат Дабхолкар, Кеннет Десай, Макранд Дешпандэ, Анант Джог, Елена Кэзан, Анант Махадеван

    О фильме: Загадочная смерть молодой девушки окутана паутиной тайн и заговоров. Отец девочки Джон Дэй является менеджером банка, который через два года после несчастного случая грабят, а его самого делают заложником, требуя отдать из сейфа секретную папку. При этом его несчастная жена Мария получает от одного из бандитов удар по голове, после чего она впадает в кому.

    Качество: HDTV 1080p
    Видео: MPEG-4 AVC, ~ 10 Мбит/с, 1920x1080
    Аудио: Русский, хинди (АС3, 2 ch, 192 Кбит/с)
    Продолжительность: 02:02:57
    Перевод: Профессиональный многоголосый

    [img]http://i6.imageban.ru/out/2017/08/21/18a1d136e9fdf73936c13f36c42bf7c9.gif[/img]

    МедиаИнфо
    General
    Unique ID                   : 205522568544334006014941113489953678652 (0x9A9E34F77195D208963553990B3C653C)
    Complete name               : D:торрентготовыеJohn.Day(2013)HDTV1080p.Generalfilm.mkv
    Format                      : Matroska
    Format version              : Version 4 / Version 2
    File size                   : 8.78 GiB
    Duration                    : 2h 2mn
    Overall bit rate mode       : Constant
    Overall bit rate            : 10.2 Mbps
    Encoded date                : UTC 2017-09-19 17:35:59
    Writing application         : mkvmerge v6.8.0 ("Theme for Great Cities") 64bit built on Mar  2 2014 21:34:26
    Writing library             : libebml v1.3.0 + libmatroska v1.4.1

    Video
    ID                          : 1
    Format                      : AVC
    Format/Info                 : Advanced Video Codec
    Format profile              : High@L4.1
    Format settings, CABAC      : Yes
    Format settings, ReFrames   : 3 frames
    Format settings, GOP        : M=3, N=33
    Codec ID                    : V_MPEG4/ISO/AVC
    Duration                    : 2h 2mn
    Bit rate mode               : Constant
    Bit rate                    : 10 000 Kbps
    Width                       : 1 920 pixels
    Height                      : 1 080 pixels
    Display aspect ratio        : 16:9
    Frame rate mode             : Constant
    Frame rate                  : 25.000 fps
    Standard                    : PAL
    Color space                 : YUV
    Chroma subsampling          : 4:2:0
    Bit depth                   : 8 bits
    Scan type                   : Progressive
    Bits/(Pixel*Frame)          : 0.193
    Stream size                 : 8.27 GiB (94%)
    Default                     : Yes
    Forced                      : No
    Color range                 : Limited
    Color primaries             : BT.709
    Transfer characteristics    : BT.709
    Matrix coefficients         : BT.709

    Audio #1
    ID                          : 2
    Format                      : AC-3
    Format/Info                 : Audio Coding 3
    Mode extension              : CM (complete main)
    Format settings, Endianness : Big
    Codec ID                    : A_AC3
    Duration                    : 2h 2mn
    Bit rate mode               : Constant
    Bit rate                    : 192 Kbps
    Channel(s)                  : 2 channels
    Channel positions           : Front: L R
    Sampling rate               : 48.0 KHz
    Frame rate                  : 31.250 fps (1536 spf)
    Compression mode            : Lossy
    Stream size                 : 169 MiB (2%)
    Default                     : Yes
    Forced                      : No

    Audio #2
    ID                          : 3
    Format                      : AC-3
    Format/Info                 : Audio Coding 3
    Mode extension              : CM (complete main)
    Format settings, Endianness : Big
    Codec ID                    : A_AC3
    Duration                    : 2h 2mn
    Bit rate mode               : Constant
    Bit rate                    : 192 Kbps
    Channel(s)                  : 2 channels
    Channel positions           : Front: L R
    Sampling rate               : 48.0 KHz
    Frame rate                  : 31.250 fps (1536 spf)
    Compression mode            : Lossy
    Stream size                 : 169 MiB (2%)
    Default                     : No
    Forced                      : NoСвернуть


    Похожие раздачи Искать похожие
    Инструкция по скачиванию
     1  Качаем uTorrent версии 2.0 и выше
     2  После установки, жмем выше под постером на ссылку Скачать [MediaGet] или Скачать .torrent
     3  Открываем скачанный файл через соответствующий клиент: MediaGet или uTorrent
     4  Ждем пока подключатся участники
     5  Качаем
    Комментарии о  Джон Дэй / John Day | HDTV 1080p 
    Ближайшее в кино
    Вверх