• Игры для PS4
  • Игры для PS3
  • Игры для XBOX360
  • Игры для PC
  • Игры для PS2
  • Игры для PSP
  • Для телефонов
  • Музыка
  • Книги/Журналы
  • Обои
  •  
    Опрос
    Откуда Вы о нас узнали?
      0
    • От знакомых2,1,false,300,full
    • Из социальных сетей2,2,false,300,full
    • Из поисковых систем2,3,false,300,full
    • Другое2,4,false,300,full
    Статистика
    Загрузка...
    Скалолаз / Cliffhanger | BDRemux 1080p
    Статус  Проверено
    В закладки
    Модератор: Max

    Скалолаз / Cliffhanger | BDRemux 1080p [Фильмы 1993] скачать торрентом/torrent бесплатно

    Год выхода
    Язык
    Закачал
    Max | 21 сентября 2017 в 12ч 37м 44с
    Раздел
    Отзывов
    0
    Раздают: 0 Качают: 0 Скачали: 0 Размер: 45.54 GB
    Инфо о раздаче | Благодарности |
    0/5
    0
    0 5 0
    Поддержи нас — расскажи друзьям!
    Orbitum
    Новый интернет-браузер Быстрее загружает сайты Экономит интернет—трафик Меняет оформление страницы ВК Блокирует всю рекламу на сайтах Загружает торренты как

    µTorrent

    клиент
    Объеденяет все твои чаты из соц. сетей в один Проигрывает твою музыку не заходя во ВКонтакте
    Скачать и многое другое... Подробности на сайте производителя
    Информация о фильме:
    Название:  Скалолаз
    Оригинальное название:  Cliffhanger
    Год выхода:  1993
    Жанр:  боевик, триллер, приключения
    Режиссер:  Ренни Харлин
    В ролях: Сильвестр Сталлоне, Джон Литгоу, Майкл Рукер, Джанин Тернер, Рекс Линн, Кэролайн Гудолл, Крэйг Фэйрбрасс, Грег Камминс, Дэнис Форест, Мишель Джойнер
    [img]http://4put.ru/pictures/max/384/1179700.jpg[/img][img]http://4put.ru/pictures/max/385/1183501.jpg[/img][img]http://4put.ru/pictures/max/385/1183509.jpg[/img][img]http://4put.ru/pictures/max/385/1183513.jpg[/img][img]http://4put.ru/pictures/max/385/1183516.jpg[/img][img]http://4put.ru/pictures/max/385/1183521.jpg[/img][img]http://4put.ru/pictures/max/385/1183532.jpg[/img][img]http://4put.ru/pictures/max/385/1183538.jpg[/img][img]http://4put.ru/pictures/max/385/1183541.jpg[/img][img]http://4put.ru/pictures/max/385/1183544.jpg[/img]

    О фильме
    В горах после снежной лавины теряются 5 человек. На их поиски отправляется один из лучших альпинистов и горных проводников - Гейб Уокер (Сталлоне). Неожиданно он понимает, что его специально заманили в горы для совершенно другого дела. Также становится ясно, что Гейб станет нежелательным свидетелем, от которого без раздумья "избавятся". Но свою жизнь он терять так просто не собирается и объявляет безжалостную войну банде вооруженных до зубов боевиков под предводительством международного террориста Эрика Куалена (Литгоу)...

    Доп. информация


    За помощь по работе с синхронизацией и монтажом Русских озвучек спасибо DreamWarrior
    За помощь при получении исходника фильма огромное спасибо sander996
    За дороги спасибо всем авторам раздач, с которых они были взяты!!
    В дорожке "Премьер Видео Фильм" есть вставки Гаврилова на пропущенных местах.
    За дороги #4,6-9 большое спасибо Прагматик-у:
    1) Twister R5
    выделение не идеально, но с учетом прибивания оригинала в DVD дороге до 14 db
    в "громких моментах" и при этом шикарного оригинального звука было оправдано.
    2) Исправлена тональность голоса Гаврилова в в "новой" версии перевода,
    выровнена данамика самого голоса, уложен с правильным соотношением громкости
    голос-оригинал по новой.
    3) Из чистого голоса убрана низкочастатная паразитная реверберация, голос это не
    спасло, но слушать его стало легче. Подкорректирована громкость в насыщенных эпизодах.
    4) Из голоса Горчакова тоже убраны паразитные низы, выровнена динамика - корректно
    уложен в отношеннии громкости голос/оригинал.
    5) В дороге Живова прежде всего без перегрузки улучшено звучание перевода в громких
    эпизодах. Сильнее сдвинут относительно начала английских фраз по всей длине дороги.
    Сохранены оригинальные чаптеры.






    Страна:  США, Франция, Италия
    Продолжительность:  01:52:42
    Перевод:  
    1: Профессиональный (многоголосый закадровый)  РТР
    2: Профессиональный (многоголосый закадровый) ОРТ
    3: Профессиональный (многоголосый закадровый) Премьер Видео Фильм
    4: Профессиональный (двухголосый закадровый) R5 (Тwister)
    5: Профессиональный (двухголосый закадровый) СТС
    6: Авторский (одноголосый закадровый) Ю.Живов
    7: Авторский (одноголосый закадровый) В.Горчаков
    8: Авторский (одноголосый закадровый) А.Гаврилов (старый)
    9: Авторский (одноголосый закадровый) А.Гаврилов
    10: Авторский (одноголосый закадровый) Л.Володарский
    11:  Авторский  Одноголосый закадровый - неизвестный
    12: Украинский: Профессиональный (двухголосый закадровый) 2+2

    MediaInfo

    General
    Unique ID : 250656907654701980720851855763912985902 (0xBC92C3B12880136F8F69C78822A70D2E)
    Format : Matroska
    Format version : Version 4 / Version 2
    File size : 42.4 GiB
    Duration : 1h 52mn
    Overall bit rate mode : Variable
    Overall bit rate : 53.9 Mbps
    Movie name : Cliffhanger 1993 1080p x264-alrmothe
    Encoded date : UTC 2015-04-27 09:12:08
    Writing application : mkvmerge v7.8.0 ("River Man") 64bit built on Mar 27 2015 16:31:37
    Writing library : libebml v1.3.1 + libmatroska v1.4.2
    TITLE : Cliffhanger.1993.1080p.BluRay.DTS.x264-FANDANGO
    DURATION : 01:52:42.752000000
    NUMBER_OF_FRAMES : 211336
    NUMBER_OF_BYTES : 162306048
    _STATISTICS_WRITING_APP : mkvmerge v7.8.0 ("River Man") 64bit built on Mar 27 2015 16:31:37
    _STATISTICS_WRITING_DATE_UTC : 2015-04-27 09:12:08
    _STATISTICS_TAGS : BPS DURATION NUMBER_OF_FRAMES NUMBER_OF_BYTES
    Video #1
    ID : 1
    Format : AVC
    Format/Info : Advanced Video Codec
    Format profile : High@L4.1
    Format settings, CABAC : Yes
    Format settings, ReFrames : 2 frames
    Codec ID : V_MPEG4/ISO/AVC
    Duration : 1h 52mn
    Bit rate mode : Variable
    Width : 1 920 pixels
    Height : 1 080 pixels
    Display aspect ratio : 16:9
    Frame rate mode : Constant
    Frame rate : 23.976 fps
    Color space : YUV
    Chroma subsampling : 4:2:0
    Bit depth : 8 bits
    Scan type : Progressive
    Default : Yes
    Forced : No
    Audio #2
    ID : 2
    Format : AC-3
    Format/Info : Audio Coding 3
    Mode extension : CM (complete main)
    Format settings, Endianness : Big
    Codec ID : A_AC3
    Duration : 1h 52mn
    Bit rate mode : Constant
    Bit rate : 192 Kbps
    Channel count : 2 channels
    Channel positions : Front: L R
    Sampling rate : 48.0 KHz
    Bit depth : 16 bits
    Compression mode : Lossy
    Stream size : 155 MiB (0%)
    Title : РТР
    Language : Russian
    Default : Yes
    Forced : Yes
    Audio #3
    ID : 3
    Format : AC-3
    Format/Info : Audio Coding 3
    Mode extension : CM (complete main)
    Format settings, Endianness : Big
    Codec ID : A_AC3
    Duration : 1h 52mn
    Bit rate mode : Constant
    Bit rate : 192 Kbps
    Channel count : 2 channels
    Channel positions : Front: L R
    Sampling rate : 48.0 KHz
    Bit depth : 16 bits
    Compression mode : Lossy
    Stream size : 155 MiB (0%)
    Title : ОРТ
    Language : Russian
    Default : No
    Forced : No
    Audio #4
    ID : 4
    Format : AC-3
    Format/Info : Audio Coding 3
    Mode extension : CM (complete main)
    Format settings, Endianness : Big
    Codec ID : A_AC3
    Duration : 1h 52mn
    Bit rate mode : Constant
    Bit rate : 192 Kbps
    Channel count : 2 channels
    Channel positions : Front: L R
    Sampling rate : 48.0 KHz
    Bit depth : 16 bits
    Compression mode : Lossy
    Stream size : 155 MiB (0%)
    Title : Премьер
    Language : Russian
    Default : No
    Forced : No
    Audio #5
    ID : 5
    Format : AC-3
    Format/Info : Audio Coding 3
    Mode extension : CM (complete main)
    Format settings, Endianness : Big
    Codec ID : A_AC3
    Duration : 1h 52mn
    Bit rate mode : Constant
    Bit rate : 448 Kbps
    Channel count : 6 channels
    Channel positions : Front: L C R, Side: L R, LFE
    Sampling rate : 48.0 KHz
    Bit depth : 16 bits
    Compression mode : Lossy
    Stream size : 361 MiB (1%)
    Title : R5 (Twister)
    Language : Russian
    Default : No
    Forced : No
    Audio #6
    ID : 6
    Format : AC-3
    Format/Info : Audio Coding 3
    Mode extension : CM (complete main)
    Format settings, Endianness : Big
    Codec ID : A_AC3
    Duration : 1h 52mn
    Bit rate mode : Constant
    Bit rate : 192 Kbps
    Channel count : 2 channels
    Channel positions : Front: L R
    Sampling rate : 48.0 KHz
    Bit depth : 16 bits
    Compression mode : Lossy
    Stream size : 155 MiB (0%)
    Title : СТС
    Language : Russian
    Default : No
    Forced : No
    Audio #7
    ID : 7
    Format : DTS
    Format/Info : Digital Theater Systems
    Format profile : MA / Core
    Mode : 16
    Format settings, Endianness : Big
    Codec ID : A_DTS
    Duration : 1h 52mn
    Bit rate mode : Variable
    Bit rate : Unknown / 1 509 Kbps
    Channel count : 6 channels
    Channel positions : Front: L C R, Side: L R, LFE
    Sampling rate : 48.0 KHz
    Bit depth : 24 bits
    Compression mode : Lossless / Lossy
    Title : Ю. Живов
    Language : Russian
    Default : No
    Forced : No
    Audio #8
    ID : 8
    Format : DTS
    Format/Info : Digital Theater Systems
    Format profile : MA / Core
    Mode : 16
    Format settings, Endianness : Big
    Codec ID : A_DTS
    Duration : 1h 52mn
    Bit rate mode : Variable
    Bit rate : Unknown / 1 509 Kbps
    Channel count : 6 channels
    Channel positions : Front: L C R, Side: L R, LFE
    Sampling rate : 48.0 KHz
    Bit depth : 24 bits
    Compression mode : Lossless / Lossy
    Title : В. Горчаков
    Language : Russian
    Default : No
    Forced : No
    Audio #9
    ID : 9
    Format : DTS
    Format/Info : Digital Theater Systems
    Format profile : MA / Core
    Mode : 16
    Format settings, Endianness : Big
    Codec ID : A_DTS
    Duration : 1h 52mn
    Bit rate mode : Variable
    Bit rate : Unknown / 1 509 Kbps
    Channel count : 6 channels
    Channel positions : Front: L C R, Side: L R, LFE
    Sampling rate : 48.0 KHz
    Bit depth : 24 bits
    Compression mode : Lossless / Lossy
    Title : А.Гаврилов (старый)
    Language : Russian
    Default : No
    Forced : No
    Audio #10
    ID : 10
    Format : DTS
    Format/Info : Digital Theater Systems
    Format profile : MA / Core
    Mode : 16
    Format settings, Endianness : Big
    Codec ID : A_DTS
    Duration : 1h 52mn
    Bit rate mode : Variable
    Bit rate : Unknown / 1 509 Kbps
    Channel count : 6 channels
    Channel positions : Front: L C R, Side: L R, LFE
    Sampling rate : 48.0 KHz
    Bit depth : 24 bits
    Compression mode : Lossless / Lossy
    Title : А. Гаврилов (новый)
    Language : Russian
    Default : No
    Forced : No
    Audio #11
    ID : 11
    Format : AC-3
    Format/Info : Audio Coding 3
    Mode extension : CM (complete main)
    Format settings, Endianness : Big
    Codec ID : A_AC3
    Duration : 1h 52mn
    Bit rate mode : Constant
    Bit rate : 192 Kbps
    Channel count : 2 channels
    Channel positions : Front: L R
    Sampling rate : 48.0 KHz
    Bit depth : 16 bits
    Compression mode : Lossy
    Stream size : 155 MiB (0%)
    Title : Володарский
    Language : Russian
    Default : No
    Forced : No
    Audio #12
    ID : 12
    Format : AC-3
    Format/Info : Audio Coding 3
    Mode extension : CM (complete main)
    Format settings, Endianness : Big
    Codec ID : A_AC3
    Duration : 1h 52mn
    Bit rate mode : Constant
    Bit rate : 192 Kbps
    Channel count : 2 channels
    Channel positions : Front: L R
    Sampling rate : 48.0 KHz
    Bit depth : 16 bits
    Compression mode : Lossy
    Stream size : 155 MiB (0%)
    Title : Неизвестный
    Language : Russian
    Default : No
    Forced : No
    Audio #13
    ID : 13
    Format : AC-3
    Format/Info : Audio Coding 3
    Mode extension : CM (complete main)
    Format settings, Endianness : Big
    Codec ID : A_AC3
    Duration : 1h 52mn
    Bit rate mode : Constant
    Bit rate : 192 Kbps
    Channel count : 2 channels
    Channel positions : Front: L R
    Sampling rate : 48.0 KHz
    Bit depth : 16 bits
    Compression mode : Lossy
    Stream size : 155 MiB (0%)
    Title : ТК "2+2"
    Language : Ukrainian
    Default : No
    Forced : No
    Audio #14
    ID : 14
    Format : AC-3
    Format/Info : Audio Coding 3
    Mode extension : CM (complete main)
    Format settings, Endianness : Big
    Codec ID : A_AC3
    Duration : 1h 52mn
    Bit rate mode : Constant
    Bit rate : 192 Kbps
    Channel count : 2 channels
    Channel positions : Front: L R
    Sampling rate : 48.0 KHz
    Bit depth : 16 bits
    Compression mode : Lossy
    Stream size : 155 MiB (0%)
    Title : Commentary with Director Renny Harlin and Sylvester Stallone
    Language : English
    Default : No
    Forced : No
    Audio #15
    ID : 15
    Format : AC-3
    Format/Info : Audio Coding 3
    Format profile : Dolby Digital
    Mode extension : CM (complete main)
    Format settings, Endianness : Big
    Codec ID : A_AC3
    Duration : 1h 52mn
    Bit rate mode : Constant
    Bit rate : 192 Kbps
    Channel count : 2 channels
    Channel positions : Front: L R
    Sampling rate : 48.0 KHz
    Bit depth : 16 bits
    Compression mode : Lossy
    Stream size : 155 MiB (0%)
    Title : Technical Crew Commentary
    Language : English
    Default : No
    Forced : No
    Audio #16
    ID : 16
    Format : DTS
    Format/Info : Digital Theater Systems
    Format profile : MA / Core
    Mode : 16
    Format settings, Endianness : Big
    Codec ID : A_DTS
    Duration : 1h 52mn
    Bit rate mode : Variable
    Bit rate : Unknown / 1 509 Kbps
    Channel count : 6 channels
    Channel positions : Front: L C R, Side: L R, LFE
    Sampling rate : 48.0 KHz
    Bit depth : 24 bits
    Compression mode : Lossless / Lossy
    Language : English
    Default : No
    Forced : No
    Text #17
    ID : 17
    Format : UTF-8
    Codec ID : S_TEXT/UTF8
    Codec ID/Info : UTF-8 Plain Text
    Language : Russian
    Default : No
    Forced : No
    Text #18
    ID : 18
    Format : UTF-8
    Codec ID : S_TEXT/UTF8
    Codec ID/Info : UTF-8 Plain Text
    Title : eng
    Language : English
    Default : Yes
    Forced : No
    Text #19
    ID : 19
    Format : UTF-8
    Codec ID : S_TEXT/UTF8
    Codec ID/Info : UTF-8 Plain Text
    Language : French
    Default : No
    Forced : No




    Качество:   BDRemux 1080p (Cliffhanger.1993.1080p.US.BluRay.AVC.DTS-HD.MA.5.1)
    Контейнер: MKV
    Видео:   1920x1080 (16:9), 23.976 fps, MPEG-4 AVC, 29829 kbps
    Аудио 1: Russian: 48 kHz, AC3, 2.0 (L,R), ~192.00 kbps avg - РТР
    Аудио 2: Russian: 48 kHz, AC3, 2.0 (L,R), ~192.00 kbps avg - ОРТ
    Аудио 3: Russian: 48 kHz, AC3, 2.0 (L,R), ~192.00 kbps avg - Премьер Видео Фильм
    Аудио 4: Russian: DTS-HD MA 5.1 / 48 kHz / 4382 kbps / 24-bit (DTS Core: 5.1 / 48 kHz / 1509 kbps / 24-bit) - R5 (Тwister)
    Аудио 5: Russian: 48 kHz, AC3, 2.0 (L,R), ~192.00 kbps avg - СТС
    Аудио 6: Russian: DTS-HD MA 5.1 / 48 kHz / 4383 kbps / 24-bit (DTS Core: 5.1 / 48 kHz / 1509 kbps / 24-bit) - Ю.Живов
    Аудио 7: Russian: DTS-HD MA 5.1 / 48 kHz / 4375 kbps / 24-bit (DTS Core: 5.1 / 48 kHz / 1509 kbps / 24-bit) - В.Горчаков
    Аудио 8: Russian: DTS-HD MA 5.1 / 48 kHz / 4376 kbps / 24-bit (DTS Core: 5.1 / 48 kHz / 1509 kbps / 24-bit) - А.Гаврилов(старый)
    Аудио 9: Russian: DTS-HD MA 5.1 / 48 kHz / 4380 kbps / 24-bit (DTS Core: 5.1 / 48 kHz / 1509 kbps / 24-bit) - А.Гаврилов
    Аудио 10: Russian: 48 kHz, AC3, 2.0 (L,R), ~192.00 kbps avg - Л.Володарский
    Аудио 11: Russian: 48 kHz, AC3, 2.0 (L,R), ~192.00 kbps avg - Неизвестный
    Аудио 11: Ukrainian: 48 kHz, AC3, 2.0 (L,R), ~192.00 kbps avg - ТК "2+2"
    Аудио 12: English: 48 kHz, AC3, 2.0 (L,R), ~192.00 kbps avg - Commentary with Director Renny Harlin and Sylvester Stallone
    Аудио 13: English: 48 kHz, AC3, 2.0 (L,R), ~192.00 kbps avg - Technical Crew Commentary
    Аудио 14: English: DTS-HD Master Audio, 4369 kbps 3/2 (L,C,R,l,r) + LFE ch, 48 kHz, 24-bit (DTS Core: 5.1 / 48 kHz / 1509 kbps / 24-bit)
    Субтитры:  Русские, английские, немецкие, испанские, француские, норвежские, шведские, финские

    Скриншоты

    [img]http://i89.fastpic.ru/big/2017/0921/6a/b0676f70870cc6eef4534a10458bee6a.png[/img][img]http://i89.fastpic.ru/big/2017/0921/25/25749e5b170c2c838f2c1f8f42976525.png[/img][img]http://i89.fastpic.ru/thumb/2017/0921/3b/_7d2790153591297a0b04dda44322b63b.jpeg[/img][img]http://i89.fastpic.ru/big/2017/0921/b5/3268f6110b2013b5daa2780f444a2ab5.png[/img][img]http://i89.fastpic.ru/big/2017/0921/db/69a7d7258dfe4b6b49d20c54379ab2db.png[/img]
    Еще похожие »

    Как скачать?
    1. Качаем UTorrent версии 2.0 и выше отсюда
    2. После установки, жмем на ссылку Скачать торрент.
    3. Открываем его через utorrent.
    4. Ждем пока подключатся участники.
    5. Качаем.


    Комментарии о Скалолаз / Cliffhanger | BDRemux 1080p
    Добавлять комментарии могут только зарегистрированные пользователи

    Зарегистрироваться или Войти


    Ближайшее в кино
    • Безумие Георга III дата выхода 20 ноября 2018Безумие Георга III
      Дата выхода: 20 ноября 2018
    • 7226|Догвилль|22 ноября 2018|200|300Догвилль
      Дата выхода: 22 ноября 2018
    • 1009784|Апгрейд|22 ноября 2018|200|300Апгрейд
      Дата выхода: 22 ноября 2018
    • 988782|Ральф против интернета|22 ноября 2018|200|300Ральф против интернета
      Дата выхода: 22 ноября 2018
    • 965901|Вдовы|22 ноября 2018|200|300Вдовы
      Дата выхода: 22 ноября 2018
    • 1011685|Нация убийц|22 ноября 2018|200|300Нация убийц
      Дата выхода: 22 ноября 2018
    • 891414|Жена|22 ноября 2018|200|300Жена
      Дата выхода: 22 ноября 2018
    • 934207|Мотылёк|22 ноября 2018|200|300Мотылёк
      Дата выхода: 22 ноября 2018
    • 1044912|Вечерняя школа|22 ноября 2018|200|300Вечерняя школа
      Дата выхода: 22 ноября 2018
    • 1036188|Быть Астрид Линдгрен|22 ноября 2018|200|300Быть Астрид Линдгрен
      Дата выхода: 22 ноября 2018
    • 1048852|Помешанный на времени|22 ноября 2018|200|300Помешанный на времени
      Дата выхода: 22 ноября 2018
    • 1049775|Подбросы|22 ноября 2018|200|300Подбросы
      Дата выхода: 22 ноября 2018
    • 1108741|Я — миллиардер|22 ноября 2018|200|300Я — миллиардер
      Дата выхода: 22 ноября 2018
    • 1118041|Три лица|22 ноября 2018|200|300Три лица
      Дата выхода: 22 ноября 2018
    • 1209190|МУЛЬТ в кино. Выпуск 85. Мамин праздник|24 ноября 2018|200|300МУЛЬТ в кино. Выпуск 85. Мамин праздник
      Дата выхода: 24 ноября 2018
    Вверх