• Игры для PS4
  • Игры для PS3
  • Игры для XBOX360
  • Игры для PC
  • Игры для PS2
  • Игры для PSP
  • Для телефонов
  • Музыка
  • Книги / Журналы
  • Обои
  • Опрос
    Откуда Вы о нас узнали?
      0
    • От знакомых2,1,false,300,full
    • Из социальных сетей2,2,false,300,full
    • Из поисковых систем2,3,false,300,full
    • Другое2,4,false,300,full
    Статистика
    Всего онлайн -
    Гостей -
    Пользователей -
    Короли трекера
    
    Благодарности () Закрыть
    Информация о фильме
    Название: Загнанных лошадей пристреливают, не правда ли?
    Оригинальное название: They Shoot Horses, Don"t They?
    Год выпуска: 1969
    Жанр:  Драма, экранизация
    Выпущено: США, American Broadcasting Company (ABC), Palomar Pictures Corporation
    Режиссер: Сидни Поллак
    В ролях: Джейн Фонда, Майкл Сарразин, Сюзанна Йорк, Гиг Янг, Ред Баттонс, Бонни Беделиа, Майкл Конрад, Брюс Дерн, Аль Льюис, Роберт Филдс, Северн Дарден, Эллин Энн МакЛери, Мэдж Кеннеди, Жаклин Хайд, Феличе Орланди, Арт Метрано, Гэйл Биллингс, Линн Уиллис, Максин Грин, Мэри Грегори, Роберт Данлэп, Пол Манти, Тим Херберт, Том МакФедден

    О фильме: Америка в тяжелые годы Великой депрессии. Всюду безработица, бедность, люди уезжают из родных мест в поиска лучшей доли на чужбине и берутся за любую работу, чтобы заработать на кусок хлеба и крышу над головой. Поэтому не удивительно, что весьма сомнительный «крупнейший в мире» танцевальный марафон с призом в 1500 долларов легко собрал мрачном ангаре на побережье несколько десятков участников со всей страны. Молодой ковбой и седой моряк, беременная женщина и унылый фермер, циничная девушка «с прошлым» Глория и немолодая бывшая актриса без будущего… Все они такие разные, но каждый готов на всё ради выигрыша. В изнеможении они танцуют сутками напролет — с перерывами только в 10 минут. От усталости, боли и бессонницы прежде азартные и нарядные, участники марафона постепенно теряют чувство реальности и ощущение собственного «Я». Они, как загнанные лошади, «на последнем дыхании» упорно стремятся к победе, не вспоминая о выбывших из гонки. Вот только — хватит ли сил даже у победителей, добравшихся до заветного финиша, жить после «финиша» дальше. Ведь загнанных лошадей пристреливают, не правда ли?



    Продолжительность: 01:59:58
    Перевод: Дублированный, профессиональный многоголосый, профессиональный двухголосый
    Субтитры: Русские, английские

    Файл
    Качество: BDRip (1080p)
    Видео: MPEG-4 AVC, 13.1 Мбит/с, 1920x818
    Аудио #1: Русский, AC3, 2ch, 128 Кбит/с - Советский дубляж (киностудия «Союзмультфильм»)
    Аудио #2: Русский, AC3, 2ch, 128 Кбит/с - многоголосый (Отдел дублирования ТРК 5 канал СП-б)
    Аудио #3: Русский, AC3, 2ch, 192 Кбит/с - двухголосый (Культура)
    Аудио #4: Русский, AC3, 2ch, 128 Кбит/с - двухголосый (R5)
    Аудио #5: Английский, AC3, 2ch, 192 Кбит/с - оригинал

    МедиаИнфо
    Формат                                   : Matroska
    Версия формата                           : Version 2
    Размер файла                             : 11,6 Гбайт
    Продолжительность                        : 1 ч. 59 м.
    Общий поток                              : 13,9 Мбит/сек
    Дата кодирования                         : UTC 2017-09-21 07:51:59
    Программа кодирования                    : mkvmerge v6.5.0 ("Isn"t she lovely") built on Oct 20 2013 12:50:05
    Библиотека кодирования                   : libebml v1.3.0 + libmatroska v1.4.1
    Обложка                                  : Yes
    Attachments                              : cover.jpg

    Видео
    Идентификатор                            : 1
    Формат                                   : AVC
    Формат/Информация                        : Advanced Video Codec
    Профиль формата                          : High@L4.1
    Настройки формата                        : CABAC / 5 Ref Frames
    Параметр CABAC формата                   : Да
    Параметр RefFrames формата               : 5 кадров
    Идентификатор кодека                     : V_MPEG4/ISO/AVC
    Продолжительность                        : 1 ч. 59 м.
    Битрейт                                  : 13,1 Мбит/сек
    Ширина                                   : 1920 пикселей
    Высота                                   : 818 пикселей
    Соотношение сторон                       : 2,35:1
    Режим частоты кадров                     : Постоянный
    Частота кадров                           : 23,976 (24000/1001) кадра/сек
    Цветовое пространство                    : YUV
    Субдискретизация насыщенности            : 4:2:0
    Битовая глубина                          : 8 бит
    Тип развёртки                            : Прогрессивная
    Бит/(Пиксели*Кадры)                      : 0.349
    Размер потока                            : 10,8 Гбайт (92%)
    Библиотека кодирования                   : x264 core 152 r2851 ba24899
    Настройки программы                      : cabac=1 / ref=5 / deblock=1:-2:-2 / analyse=0x3:0x133 / me=umh / subme=11 / psy=1 / psy_rd=1.00:0.00 / mixed_ref=1 / me_range=32 / chroma_me=1 / trellis=2 / 8x8dct=1 / cqm=0 / deadzone=21,11 / fast_pskip=0 / chroma_qp_offset=-2 / threads=12 / lookahead_threads=1 / sliced_threads=0 / nr=0 / decimate=0 / interlaced=0 / bluray_compat=0 / constrained_intra=0 / bframes=13 / b_pyramid=2 / b_adapt=2 / b_bias=0 / direct=3 / weightb=1 / open_gop=0 / weightp=2 / keyint=240 / keyint_min=23 / scenecut=40 / intra_refresh=0 / rc=2pass / mbtree=0 / bitrate=13128 / ratetol=1.0 / qcomp=0.60 / qpmin=0 / qpmax=69 / qpstep=4 / cplxblur=20.0 / qblur=0.5 / ip_ratio=1.30 / pb_ratio=1.24 / aq=3:0.70
    Язык                                     : English
    Default                                  : Да
    Forced                                   : Нет

    Аудио #1
    Идентификатор                            : 2
    Формат                                   : AC-3
    Формат/Информация                        : Audio Coding 3
    Параметр Endianness формата              : Big
    Идентификатор кодека                     : A_AC3
    Продолжительность                        : 1 ч. 59 м.
    Вид битрейта                             : Постоянный
    Битрейт                                  : 128 Кбит/сек
    Каналы                                   : 2 канала
    Расположение каналов                     : Front: L R
    Частота                                  : 48,0 КГц
    Частота кадров                           : 31,250 кадров/сек (1536 SPF)
    Битовая глубина                          : 16 бит
    Метод сжатия                             : С потерями
    Размер потока                            : 110 Мбайт (1%)
    Заголовок                                : Dub[Союзмультфильм]
    Язык                                     : Russian
    Default                                  : Да
    Forced                                   : Нет

    Аудио #2
    Идентификатор                            : 3
    Формат                                   : AC-3
    Формат/Информация                        : Audio Coding 3
    Параметр Endianness формата              : Big
    Идентификатор кодека                     : A_AC3
    Продолжительность                        : 1 ч. 59 м.
    Вид битрейта                             : Постоянный
    Битрейт                                  : 128 Кбит/сек
    Каналы                                   : 2 канала
    Расположение каналов                     : Front: L R
    Частота                                  : 48,0 КГц
    Частота кадров                           : 31,250 кадров/сек (1536 SPF)
    Битовая глубина                          : 16 бит
    Метод сжатия                             : С потерями
    Размер потока                            : 110 Мбайт (1%)
    Заголовок                                : MVO[5 канал]
    Язык                                     : Russian
    Default                                  : Нет
    Forced                                   : Нет

    Аудио #3
    Идентификатор                            : 4
    Формат                                   : AC-3
    Формат/Информация                        : Audio Coding 3
    Параметр Endianness формата              : Big
    Идентификатор кодека                     : A_AC3
    Продолжительность                        : 1 ч. 59 м.
    Вид битрейта                             : Постоянный
    Битрейт                                  : 192 Кбит/сек
    Каналы                                   : 2 канала
    Расположение каналов                     : Front: L R
    Частота                                  : 48,0 КГц
    Частота кадров                           : 31,250 кадров/сек (1536 SPF)
    Битовая глубина                          : 16 бит
    Метод сжатия                             : С потерями
    Размер потока                            : 165 Мбайт (1%)
    Заголовок                                : DVO[Культура]
    Язык                                     : Russian
    Default                                  : Нет
    Forced                                   : Нет

    Аудио #4
    Идентификатор                            : 5
    Формат                                   : AC-3
    Формат/Информация                        : Audio Coding 3
    Параметр Endianness формата              : Big
    Идентификатор кодека                     : A_AC3
    Продолжительность                        : 1 ч. 59 м.
    Вид битрейта                             : Постоянный
    Битрейт                                  : 128 Кбит/сек
    Каналы                                   : 2 канала
    Расположение каналов                     : Front: L R
    Частота                                  : 48,0 КГц
    Частота кадров                           : 31,250 кадров/сек (1536 SPF)
    Битовая глубина                          : 16 бит
    Метод сжатия                             : С потерями
    Размер потока                            : 110 Мбайт (1%)
    Заголовок                                : DVO[R5]
    Язык                                     : Russian
    Default                                  : Нет
    Forced                                   : Нет

    Аудио #5
    Идентификатор                            : 6
    Формат                                   : AC-3
    Формат/Информация                        : Audio Coding 3
    Параметр Endianness формата              : Big
    Идентификатор кодека                     : A_AC3
    Продолжительность                        : 1 ч. 59 м.
    Вид битрейта                             : Постоянный
    Битрейт                                  : 192 Кбит/сек
    Каналы                                   : 2 канала
    Расположение каналов                     : Front: L R
    Частота                                  : 48,0 КГц
    Частота кадров                           : 31,250 кадров/сек (1536 SPF)
    Битовая глубина                          : 16 бит
    Метод сжатия                             : С потерями
    Размер потока                            : 165 Мбайт (1%)
    Язык                                     : English
    Default                                  : Нет
    Forced                                   : Нет

    Текст #1
    Идентификатор                            : 7
    Формат                                   : UTF-8
    Идентификатор кодека                     : S_TEXT/UTF8
    Идентификатор кодека/Информация          : UTF-8 Plain Text
    Язык                                     : Russian
    Default                                  : Нет
    Forced                                   : Нет

    Текст #2
    Идентификатор                            : 8
    Формат                                   : UTF-8
    Идентификатор кодека                     : S_TEXT/UTF8
    Идентификатор кодека/Информация          : UTF-8 Plain Text
    Язык                                     : English
    Default                                  : Нет
    Forced                                   : Нет

    Меню
    00:00:00.000                             : en:Chapter 00
    00:10:12.737                             : en:Chapter 01
    00:23:34.037                             : en:Chapter 02
    00:39:37.917                             : en:Chapter 03
    00:57:23.481                             : en:Chapter 04
    01:12:14.580                             : en:Chapter 05
    01:27:47.428                             : en:Chapter 06
    01:42:46.827                             : en:Chapter 07
    01:59:56.981                             : en:Chapter 08Свернуть


    х264
    x264 [info]: frame I:1028  Avg QP:19.49  size:129101
    x264 [info]: frame P:30177 Avg QP:20.29  size: 92343
    x264 [info]: frame B:141374 Avg QP:21.85  size: 62250
    x264 [info]: consecutive B-frames:  1.2%  1.3%  3.3% 10.9%  8.5% 47.6%  4.9%  1.1%  6.8%  1.1%  4.1%  6.3%  2.8%  0.3%Свернуть




    Сэмпл
    Похожие раздачи Искать похожие
    Инструкция по скачиванию
     1  Качаем uTorrent версии 2.0 и выше
     2  После установки, жмем выше под постером на ссылку Скачать [MediaGet] или Скачать .torrent
     3  Открываем скачанный файл через соответствующий клиент: MediaGet или uTorrent
     4  Ждем пока подключатся участники
     5  Качаем
    Комментарии о  Загнанных лошадей пристреливают, не правда ли? / They Shoot Horses, Don't They? | BDRip 1080p 
    Ближайшее в кино
    Вверх