• Игры для PS4
  • Игры для PS3
  • Игры для XBOX360
  • Игры для PC
  • Игры для PS2
  • Игры для PSP
  • Для телефонов
  • Музыка
  • Книги / Журналы
  • Обои
  • Опрос
    Удобен ли сайт в использовании?
      0
    • Очень удобен, все понятно1,1,false,300,full
    • Удобен1,2,false,300,full
    • Средне1,3,false,300,full
    • Неудобен, трудно ориентироваться1,4,false,300,full
    • Совсем неудобен1,5,false,300,full
    Статистика
    Всего онлайн -
    Гостей -
    Пользователей -
    Короли трекера
    
    Благодарности () Закрыть
    Информация о фильме
    Название: Прерванная жизнь
    Оригинальное название: Girl, Interrupted
    Год выхода: 1999
    Жанр:  драма, биография
    Режиссер: Джеймс Мэнголд
    В ролях: Вайнона Райдер, Анджелина Джоли, Вупи Голдберг, Бриттани Мёрфи, Клеа ДюВалл, Элизабет Мосс, Ванесса Редгрейв, Джаред Лето, Джеффри Тэмбор, Анджела Беттис, Джиллиан Арменанте, Друци Макданиэль, Элисон Клер, Кристина Майерс, Джоанна Кернс, Трэвис Файн, Глория Барнхарт, Джози Гэммелл, Брюс Олтмен, Мэри Кэй Плэйс, Рэй Бэйкер, КаДи Стрикленд, Кристиан Монро, Кертвуд Смит, Дэвид Скотт Тейлор

    О фильме :
    В конце шестидесятых дикие сердцем отправлялись в Вудсток, неудачники — на войну, а те, кому отправиться было некуда, — в бездну. После того, как Сюзанне поставили диагноз «пограничное состояние», девушка оказывается в закрытом психиатрическом учреждении, и чтобы подняться со дна пропасти к свету, она должна победить хаос в самой себе и в окружающем мире. Но так трудно сражаться с бесплотным врагом, особенно если это твоя собственная тень.



    Страна: США, Германия
    Студия: Columbia Pictures Corporation, Red Wagon Entertainment, 3 Arts Entertainment
    Продолжительность: 02:02:11
    Перевод: Профессиональный (многоголосый, закадровый)

    Файл
    Формат: MKV
    Качество: HDTVRip-AVC
    Видео: MPEG-4 AVC, 752x408, ~ 780 Кбит/с
    Аудио: [img]http://i93.fastpic.ru/big/2017/0727/c0/4b72f0369a3393219ed5935e91fc15c0.gif[/img] AAC-LC, 2 ch, ~72 Кбит/с
    Cубтитры: Русские

    MI
    Общее
    Уникальный идентификатор : 171821451752993141014983875178002518151 (0x81439B9F75C75B6FA94314297EC21087)
    Полное имя : D:MOVIESGirl Interrupted.1999.ExKinoRay.mkv
    Формат : Matroska
    Версия формата : Version 4 / Version 2
    Размер файла : 746 Мбайт
    Продолжительность : 2 ч. 2 м.
    Общий поток : 854 Кбит/сек
    Дата кодирования : UTC 2017-09-21 12:28:07
    Программа кодирования : mkvmerge v15.0.0 ("Duel with the Devil") 64-bit
    Библиотека кодирования : libebml v1.3.5 + libmatroska v1.4.5

    Видео
    Идентификатор : 1
    Формат : AVC
    Формат/Информация : Advanced Video Codec
    Профиль формата : High@L4.1
    Параметр CABAC формата : Да
    Параметр RefFrames формата : 10 кадров
    Идентификатор кодека : V_MPEG4/ISO/AVC
    Продолжительность : 2 ч. 2 м.
    Битрейт : 780 Кбит/сек
    Ширина : 752 пикселя
    Высота : 408 пикселей
    Соотношение сторон : 1,85:1
    Режим частоты кадров : Постоянный
    Частота кадров : 25,000 кадров/сек
    Цветовое пространство : YUV
    Субдискретизация насыщенности : 4:2:0
    Битовая глубина : 8 бит
    Тип развёртки : Прогрессивная
    Бит/(Пиксели*Кадры) : 0.102
    Размер потока : 682 Мбайт (91%)
    Библиотека кодирования : x264 core 152 r2851kMod ba24899
    Настройки программы : cabac=1 / ref=10 / deblock=1:-3:-3 / analyse=0x3:0x113 / me=umh / subme=11 / psy=1 / fade_compensate=0.00 / psy_rd=1.00:0.10 / mixed_ref=1 / me_range=32 / chroma_me=1 / trellis=2 / 8x8dct=1 / cqm=0 / deadzone=21,11 / fast_pskip=0 / chroma_qp_offset=-3 / threads=6 / lookahead_threads=1 / sliced_threads=0 / nr=0 / decimate=0 / interlaced=0 / bluray_compat=0 / constrained_intra=0 / bframes=10 / b_pyramid=2 / b_adapt=2 / b_bias=0 / direct=3 / weightb=1 / open_gop=0 / weightp=2 / keyint=250 / keyint_min=24 / scenecut=40 / intra_refresh=0 / rc_lookahead=40 / rc=2pass / mbtree=1 / bitrate=780 / ratetol=1.0 / qcomp=0.60 / qpmin=0 / qpmax=69 / qpstep=4 / cplxblur=20.0 / qblur=0.5 / vbv_maxrate=50000 / vbv_bufsize=62500 / nal_hrd=none / filler=0 / ip_ratio=1.40 / aq=3:1.00
    Default : Да
    Forced : Нет

    Аудио
    Идентификатор : 2
    Формат : AAC
    Формат/Информация : Advanced Audio Codec
    Профиль формата : LC
    Идентификатор кодека : A_AAC
    Продолжительность : 2 ч. 2 м.
    Битрейт : 72,0 Кбит/сек
    Каналы : 2 канала
    Расположение каналов : Front: L R
    Частота : 48,0 КГц
    Частота кадров : 46,875 кадров/сек (1024 SPF)
    Метод сжатия : С потерями
    Задержка видео : 9 мс.
    Размер потока : 62,9 Мбайт (8%)
    Default : Да
    Forced : Нет

    Текст
    Идентификатор : 3
    Формат : UTF-8
    Идентификатор кодека : S_TEXT/UTF8
    Идентификатор кодека/Информация : UTF-8 Plain Text
    Продолжительность : 1 ч. 58 м.
    Битрейт : 77 бит/сек
    ElementCount : 1350
    Размер потока : 66,7 Кбайт (0%)
    Заголовок : R5
    Язык : Russian
    Default : Нет
    Forced : Нет
    Свернуть


    Скриншоты
    [screen]http://i91.fastpic.ru/big/2017/0921/94/41eb132e136cdd97c55a8f01ec76da94.jpg[/screen][screen]http://i91.fastpic.ru/big/2017/0921/e0/ee589f34758d00c44f20b45d72a25de0.jpg[/screen][screen]http://i89.fastpic.ru/big/2017/0921/9a/5882d9f8e91bdb5d68cd266b5351cc9a.jpg[/screen][screen]http://i96.fastpic.ru/big/2017/0921/7a/eb7336ece71c654c48d5ce04df82977a.jpg[/screen]

    [screen]http://i89.fastpic.ru/big/2017/0921/27/e691a9ae3ddf7cfa7db11cd1bb87a327.jpg[/screen][screen]http://i91.fastpic.ru/big/2017/0921/ad/cdb4feceaeaa4a72659c8cd3f1ab31ad.jpg[/screen][screen]http://i95.fastpic.ru/big/2017/0921/8d/b8584d2f58fbab8108c33043a439c48d.jpg[/screen][screen]http://i89.fastpic.ru/big/2017/0921/d7/b13a8aca69f1fd099b456716b101c1d7.jpg[/screen]Свернуть
    Похожие раздачи Искать похожие
    Инструкция по скачиванию
     1  Качаем uTorrent версии 2.0 и выше
     2  После установки, жмем выше под постером на ссылку Скачать [MediaGet] или Скачать .torrent
     3  Открываем скачанный файл через соответствующий клиент: MediaGet или uTorrent
     4  Ждем пока подключатся участники
     5  Качаем
    Комментарии о  Прерванная жизнь / Girl, Interrupted | HDTVRip-AVC 
    Ближайшее в кино
    Вверх