• Игры для PS4
  • Игры для PS3
  • Игры для XBOX360
  • Игры для PC
  • Игры для PS2
  • Игры для PSP
  • Для телефонов
  • Музыка
  • Книги/Журналы
  • Обои
  •  
    Опрос
    Удобен ли сайт в использовании?
      0
    • Очень удобен, все понятно1,1,false,300,full
    • Удобен1,2,false,300,full
    • Средне1,3,false,300,full
    • Неудобен, трудно ориентироваться1,4,false,300,full
    • Совсем неудобен1,5,false,300,full
    Статистика
    Загрузка...
    Стражи Галактики. Часть 2 / Guardians of the Galaxy Vol. 2 | BDRip 1080p
    Статус  Проверено
    В закладки
    Модератор: Max

    Стражи Галактики. Часть 2 / Guardians of the Galaxy Vol. 2 | BDRip 1080p [Фильмы 2017] скачать торрентом/torrent бесплатно

    Год выхода
    Язык
    Закачал
    Max | 21 сентября 2017 в 16ч 55м 31с
    Раздел
    Отзывов
    0
    Раздают: 0 Качают: 0 Скачали: 0 Размер: 16.23 GB
    Инфо о раздаче | Благодарности |
    0/5
    0
    0 5 0
    Поддержи нас — расскажи друзьям!
    Orbitum
    Новый интернет-браузер Быстрее загружает сайты Экономит интернет—трафик Меняет оформление страницы ВК Блокирует всю рекламу на сайтах Загружает торренты как

    µTorrent

    клиент
    Объеденяет все твои чаты из соц. сетей в один Проигрывает твою музыку не заходя во ВКонтакте
    Скачать и многое другое... Подробности на сайте производителя
    Название:  Стражи Галактики. Часть 2
    Оригинальное название: Guardians of the Galaxy. Vol. 2
    Год выхода: 2017
    Жанр:  Фантастика, боевик, приключения, комедия
    Режиссер: Джеймс Ганн
    В ролях: Крис Прэтт, Зои Салдана, Дэйв Батиста, Вин Дизель, Брэдли Купер, Майкл Рукер, Карен Гиллан, Пом Клементьефф, Элизабет Дебики, Курт Расселл

    О фильме:
    Все в сборе: Землянин Питер Квилл (Звездный Лорд), молчаливый громила Дракс, зеленокожая наемница Гамора, живой сучок малыш Грут и говорящий енот. Герои не изменяют себе и с завидной регулярностью продолжают попадать в немыслимые ситуации, выпутываясь из них почти без ущерба (а иногда даже с пользой) для окружающих. На этот раз им предстоит раскрыть одну из самых главных тайн во всей Галактике: кто же на самом деле отец Питера Квилла?

    Выпущено: США, Marvel Studios
    Продолжительность:  02:15:46



    Скриншоты

    [img]http://img12.lostpic.net/2017/09/21/5cf5f497dcd3206f37af84edce44167f.jpg[/img][img]http://img12.lostpic.net/2017/09/21/9fbd7143ac4666d006e659379ea311f0.jpg[/img]
    [img]http://img12.lostpic.net/2017/09/21/77bada8b87c1089269d49e53f7c9557e.jpg[/img][img]http://img12.lostpic.net/2017/09/21/0ce4be9473ac32dbe56fcb83886ba9b8.jpg[/img]
    [img]http://img12.lostpic.net/2017/09/21/084f18cb099699b46b34bc11afe3ca84.jpg[/img][img]http://img12.lostpic.net/2017/09/21/705848d320021b734a35356ef414cae2.jpg[/img]
    [img]http://img12.lostpic.net/2017/09/21/13dbc1de2bc96a718817955534d509f7.jpg[/img][img]http://img12.lostpic.net/2017/09/21/65f88d49e89b4deafecf10b710d0b96c.jpg[/img]
    [img]http://img12.lostpic.net/2017/09/21/9fbd7143ac4666d006e659379ea311f0.jpg[/img][img]http://img12.lostpic.net/2017/09/21/4fa110d8017bf2c58f14a27334c565ee.jpg[/img]


    MI Info

    Формат                                   : Matroska
    Версия формата                           : Version 4 / Version 2
    Размер файла                             : 16,2 Гбайт
    Продолжительность                        : 2 ч. 15 м.
    Общий поток                              : 17,1 Мбит/сек
    Название фильма                          : Guardians of the Galaxy Vol. 2 (2017) HDCLUB
    Дата кодирования                         : UTC 2017-09-21 12:19:25
    Программа кодирования                    : mkvmerge v9.3.1 ("Mask Machine") 64bit
    Библиотека кодирования                   : libebml v1.3.4 + libmatroska v1.4.5
    Attachements                             : cover.jpg
    DURATION                                 : 02:14:26.686000000
    NUMBER_OF_FRAMES                         : 1578
    NUMBER_OF_BYTES                          : 47813
    _STATISTICS_WRITING_APP                  : mkvmerge v9.3.1 ("Mask Machine") 64bit
    _STATISTICS_WRITING_DATE_UTC             : 2017-09-21 12:19:25
    _STATISTICS_TAGS                         : BPS DURATION NUMBER_OF_FRAMES NUMBER_OF_BYTES

    Видео
    Идентификатор                            : 1
    Формат                                   : AVC
    Формат/Информация                        : Advanced Video Codec
    Профиль формата                          : High@L4.1
    Параметр CABAC формата                   : Да
    Параметр ReFrames формата                : 5 кадров
    Идентификатор кодека                     : V_MPEG4/ISO/AVC
    Продолжительность                        : 2 ч. 15 м.
    Битрейт                                  : 14,4 Мбит/сек
    Ширина                                   : 1920 пикселей
    Высота                                   : 800 пикселей
    Соотношение сторон                       : 2,40:1
    Режим частоты кадров                     : Постоянный
    Частота кадров                           : 23,976 кадра/сек
    Цветовое пространство                    : YUV
    Субдискретизация насыщенности            : 4:2:0
    Битовая глубина                          : 8 бит
    Тип развёртки                            : Прогрессивная
    Бит/(Пиксели*Кадры)                      : 0.392
    Размер потока                            : 13,4 Гбайт (82%)
    Заголовок                                : HD 1080P || Released for HDCLUB 2017 年9 月21 日
    Библиотека кодирования                   : x264 core 129 M9479+75 64bit by ProCoder[2016.07.08]Japan  
    Настройки программы                      : cabac=1 / ref=5 / deblock=1:-3:-3 / analyse=0x3:0x110 / me=umh / subme=11 / psy=1 / fade_compensate=0.00 / psy_rd=1.30:0.30 / mixed_ref=1 / me_range=54 / chroma_me=1 / trellis=2 / 8x8dct=1 / cqm=0 / deadzone=21,11 / fast_pskip=0 / chroma_qp_offset=-2 / threads=16 / lookahead_threads=4 / sliced_threads=0 / slices=50 / nr=0 / decimate=1 / interlaced=0 / bluray_compat=0 / constrained_intra=0 / fgo=0 / bframes=16 / b_pyramid=2 / b_adapt=2 / b_bias=16 / direct=2 / weightb=1 / open_gop=1 / weightp=2 / keyint=240 / keyint_min=23 / scenecut=40 / intra_refresh=0 / rc_lookahead=40 / rc=2pass / mbtree=0 / bitrate=14444 / ratetol=1.0 / qcomp=0.60 / qpmin=0 / qpmax=69 / qpstep=4 / cplxblur=20.0 / qblur=0.5 / vbv_maxrate=50000 / vbv_bufsize=97500 / nal_hrd=none / ip_ratio=1.35 / pb_ratio=1.25 / aq=3:0.90
    Язык                                     : English
    Default                                  : Да
    Forced                                   : Нет
    Цветовой диапазон                        : Limited
    Основные цвета                           : BT.709
    Характеристики трансфера                 : BT.709
    Коэффициенты матрицы                     : BT.709

    Аудио #1
    Идентификатор                            : 2
    Формат                                   : AC-3
    Формат/Информация                        : Audio Coding 3
    Расширение режима                        : CM (complete main)
    Параметр Endianness формата              : Big
    Идентификатор кодека                     : A_AC3
    Продолжительность                        : 2 ч. 15 м.
    Вид битрейта                             : Постоянный
    Битрейт                                  : 640 Кбит/сек
    Каналы                                   : 6 каналов
    Расположение каналов                     : Front: L C R, Side: L R, LFE
    Частота                                  : 48,0 КГц
    Метод сжатия                             : С потерями
    Размер потока                            : 622 Мбайт (4%)
    Заголовок                                : [ Дубляж Blu-ray EUR ]
    Язык                                     : Russian
    Default                                  : Да
    Forced                                   : Нет

    Аудио #2
    Идентификатор                            : 3
    Формат                                   : DTS
    Формат/Информация                        : Digital Theater Systems
    Режим                                    : 16
    Параметр Endianness формата              : Big
    Идентификатор кодека                     : A_DTS
    Продолжительность                        : 2 ч. 15 м.
    Вид битрейта                             : Постоянный
    Битрейт                                  : 1509 Кбит/сек
    Каналы                                   : 6 каналов
    Расположение каналов                     : Front: L C R, Side: L R, LFE
    Частота                                  : 48,0 КГц
    Битовая глубина                          : 24 бит
    Метод сжатия                             : С потерями
    Размер потока                            : 1,43 Гбайт (9%)
    Язык                                     : English
    Default                                  : Нет
    Forced                                   : Нет

    Аудио #3
    Идентификатор                            : 4
    Формат                                   : AC-3
    Формат/Информация                        : Audio Coding 3
    Расширение режима                        : CM (complete main)
    Параметр Endianness формата              : Big
    Идентификатор кодека                     : A_AC3
    Продолжительность                        : 2 ч. 15 м.
    Вид битрейта                             : Постоянный
    Битрейт                                  : 320 Кбит/сек
    Каналы                                   : 2 канала
    Расположение каналов                     : Front: L R
    Частота                                  : 48,0 КГц
    Метод сжатия                             : С потерями
    Размер потока                            : 311 Мбайт (2%)
    Заголовок                                : [ Desprictive ]
    Язык                                     : English
    Default                                  : Нет
    Forced                                   : Нет

    Аудио #4
    Идентификатор                            : 5
    Формат                                   : AC-3
    Формат/Информация                        : Audio Coding 3
    Расширение режима                        : CM (complete main)
    Параметр Endianness формата              : Big
    Идентификатор кодека                     : A_AC3
    Продолжительность                        : 2 ч. 15 м.
    Вид битрейта                             : Постоянный
    Битрейт                                  : 192 Кбит/сек
    Каналы                                   : 2 канала
    Расположение каналов                     : Front: L R
    Частота                                  : 48,0 КГц
    Метод сжатия                             : С потерями
    Размер потока                            : 186 Мбайт (1%)
    Заголовок                                : [ Commentary ]
    Язык                                     : English
    Default                                  : Нет
    Forced                                   : Нет

    Текст #1
    Идентификатор                            : 6
    Формат                                   : UTF-8
    Идентификатор кодека                     : S_TEXT/UTF8
    Идентификатор кодека/Информация          : UTF-8 Plain Text
    Заголовок                                : [ Forced ]
    Язык                                     : Russian
    Default                                  : Да
    Forced                                   : Нет

    Текст #2
    Идентификатор                            : 7
    Формат                                   : UTF-8
    Идентификатор кодека                     : S_TEXT/UTF8
    Идентификатор кодека/Информация          : UTF-8 Plain Text
    Заголовок                                : [ Full ]
    Язык                                     : Russian
    Default                                  : Нет
    Forced                                   : Нет

    Текст #3
    Идентификатор                            : 8
    Формат                                   : UTF-8
    Идентификатор кодека                     : S_TEXT/UTF8
    Идентификатор кодека/Информация          : UTF-8 Plain Text
    Заголовок                                : [ Full ]
    Язык                                     : English
    Default                                  : Нет
    Forced                                   : Нет

    Меню
    00:00:00.000                             : :Глава 01
    00:09:56.177                             : :Глава 02
    00:15:10.116                             : :Глава 03
    00:22:14.082                             : :Глава 04
    00:32:33.701                             : :Глава 05
    00:36:52.126                             : :Глава 06
    00:42:29.170                             : :Глава 07
    00:48:03.463                             : :Глава 08
    00:53:18.903                             : :Глава 09
    00:58:45.938                             : :Глава 10
    01:05:52.239                             : :Глава 11
    01:11:12.434                             : :Глава 12
    01:18:43.591                             : :Глава 13
    01:23:55.320                             : :Глава 14
    01:30:24.752                             : :Глава 15
    01:39:36.177                             : :Глава 16
    01:47:06.211                             : :Глава 17
    01:54:21.604                             : :Глава 18
    01:58:53.708                             : :Глава 19
    02:07:13.458                             : :Глава 20



    Кодирование: ProCoder
    Формат: MKV
    Источник:  Guardians of the Galaxy. Vol. 2 Blu-ray
    Видео: 1920x800 at 23.976 fps, MPEG-4 AVC, ~ 14,4 mbps avg (2-pass)
    Аудио#1: Русский: 48 kHz/16-bit, AC3 5.1, 640.00 kbps | Дубляж Blu-ray EUR |
    Аудио#2: English: 48 kHz/16-bit, DTS 5.1, 1509.00 kbps
    Аудио#3: English: 48 kHz/`6-bit, AC3 2.0, 320.00 kbps | Desprictive |
    Аудио#4: English: 48 kHz/16-bit, AC3 2.0, 192.00 kbps | Commentary |
    Субтитры: Russian ( forced, full), English
    ✦ Сохранены оригинальные главы как на Blu-ray

    [img]http://img12.lostpic.net/2017/09/21/0762249ab24aa33cf4c3734f8d2a02bd.gif[/img]
    Еще похожие »

    Как скачать?
    1. Качаем UTorrent версии 2.0 и выше отсюда
    2. После установки, жмем на ссылку Скачать торрент.
    3. Открываем его через utorrent.
    4. Ждем пока подключатся участники.
    5. Качаем.


    Комментарии о Стражи Галактики. Часть 2 / Guardians of the Galaxy Vol. 2 | BDRip 1080p
    Добавлять комментарии могут только зарегистрированные пользователи

    Зарегистрироваться или Войти


    Ближайшее в кино
    • Безумие Георга III дата выхода 20 ноября 2018Безумие Георга III
      Дата выхода: 20 ноября 2018
    • 7226|Догвилль|22 ноября 2018|200|300Догвилль
      Дата выхода: 22 ноября 2018
    • 1009784|Апгрейд|22 ноября 2018|200|300Апгрейд
      Дата выхода: 22 ноября 2018
    • 988782|Ральф против интернета|22 ноября 2018|200|300Ральф против интернета
      Дата выхода: 22 ноября 2018
    • 965901|Вдовы|22 ноября 2018|200|300Вдовы
      Дата выхода: 22 ноября 2018
    • 1011685|Нация убийц|22 ноября 2018|200|300Нация убийц
      Дата выхода: 22 ноября 2018
    • 891414|Жена|22 ноября 2018|200|300Жена
      Дата выхода: 22 ноября 2018
    • 934207|Мотылёк|22 ноября 2018|200|300Мотылёк
      Дата выхода: 22 ноября 2018
    • 1044912|Вечерняя школа|22 ноября 2018|200|300Вечерняя школа
      Дата выхода: 22 ноября 2018
    • 1036188|Быть Астрид Линдгрен|22 ноября 2018|200|300Быть Астрид Линдгрен
      Дата выхода: 22 ноября 2018
    • 1048852|Помешанный на времени|22 ноября 2018|200|300Помешанный на времени
      Дата выхода: 22 ноября 2018
    • 1049775|Подбросы|22 ноября 2018|200|300Подбросы
      Дата выхода: 22 ноября 2018
    • 1108741|Я — миллиардер|22 ноября 2018|200|300Я — миллиардер
      Дата выхода: 22 ноября 2018
    • 1118041|Три лица|22 ноября 2018|200|300Три лица
      Дата выхода: 22 ноября 2018
    • 1209190|МУЛЬТ в кино. Выпуск 85. Мамин праздник|24 ноября 2018|200|300МУЛЬТ в кино. Выпуск 85. Мамин праздник
      Дата выхода: 24 ноября 2018
    Вверх