• Игры для PS4
  • Игры для PS3
  • Игры для XBOX360
  • Игры для PC
  • Игры для PS2
  • Игры для PSP
  • Для телефонов
  • Музыка
  • Книги / Журналы
  • Обои
  • Опрос
    Откуда Вы о нас узнали?
      0
    • От знакомых2,1,false,300,full
    • Из социальных сетей2,2,false,300,full
    • Из поисковых систем2,3,false,300,full
    • Другое2,4,false,300,full
    Статистика
    Всего онлайн -
    Гостей -
    Пользователей -
    Короли трекера
    
    Благодарности () Закрыть
    Информация о фильме
    Название: Кровь невинных
    Оригинальное название: Innocent Blood
    Год выхода: 1991
    Жанр: ужасы, боевик, мелодрама, комедия, криминал
    Режиссер: Джон Лэндис
    В ролях: Анн Парийо, Роберт Лоджа, Энтони ЛаПалья, Дэвид Провэл, Чазз Пальминтери, Луис Гусман, Анджела Бассетт, Илэйн Кэйган, Рокко Систо, Лео Берместер, Фрэнк Оз, Дарио Ардженто, Линни Куигли, Тони Сирико, Ким Коутс, Маршалл Белл, Дон Риклз, Рон Томас, Том Савини

    О фильме: Жертвой очаровательной вампирши Мари чуть было не стал гангстерский босс, питсбургский авторитет. После того как гангстер понял, после «свидания» с Мари, какие возможности открываются перед ним и его командой, городу угрожает беда. Если вампир-Мари и ее друг, тайный агент полиции, не остановят преступников, Питсбург превратится в настоящий ад…



    Страна: США
    Продолжительность: 01:54:59
    Перевод 1: Профессиональный (многоголосый, закадровый) НТВ
    Перевод 2: Профессиональный (многоголосый, закадровый) ТВ3
    Перевод 3: Профессиональный (двухголосый, закадровый)
    Перевод 4: Авторский (одноголосый, закадровый) Андрей Гаврилов
    Перевод 5: Авторский (одноголосый, закадровый) Юрий Живов
    Перевод 6: Авторский (одноголосый, закадровый) Сергей Кузнецов, в конце несколько минут перевод Гаврилова

    Файл
    Качество: BDRemux 1080р
    Видео: 1920x1080 / MPEG-4 AVC Video / 34991 kbps / 1080p / 23.976 fps / 16:9 / High Profile 4.1
    Аудио 1: Русский, AC3 2.0 224 Kbps 48,0 КГц (MVO NTV)
    Аудио 2: Русский, AC3 2.0 224 Kbps 48,0 КГц (MVO TV3)
    Аудио 3: Русский, AC3 2.0 224 Kbps 48,0 КГц (DVO)
    Аудио 4: Русский, AC3 2.0 224 Kbps 48,0 КГц (Gavrilov)
    Аудио 5: Русский, AC3 2.0 224 Kbps 48,0 КГц (Zhivov)
    Аудио 6: Русский, AC3 2.0 224 Kbps 48,0 КГц (Kuznetsov)
    Аудио 7: English, FLAC 2.0 ~1359 Kbps 48,0 КГц (Original)

    Скриншоты
    [screen]http://img12.lostpic.net/2017/10/01/9b0d302819de8a10eff681f9eb69a2a9.png[/screen][screen]http://img11.lostpic.net/2017/10/01/964cc3e4fce80f6106efdd37e45a3340.png[/screen][screen]http://img12.lostpic.net/2017/10/01/5954d03bb893ad822c09b8fd7809390c.png[/screen]Свернуть


    MediaInfo
    Общее
    Уникальный идентификатор : 189969622974214410751134908884332397791 (0x8EEAD18BE72665388A0EE009C04944DF)
    Полное имя : D:Innocent.Blood.1992.Uncut.6xRus.Eng.mkv
    Формат : Matroska
    Версия формата : Version 4 / Version 2
    Размер файла : 30,2 Гбайт
    Продолжительность : 1 ч. 54 м.
    Режим общего битрейта : Переменный
    Общий поток : 37,6 Мбит/сек
    Название фильма : Innocent Blood
    Дата кодирования : UTC 2017-10-01 06:22:24
    Программа кодирования : mkvmerge v9.8.0 ("Kuglblids") 32bit
    Библиотека кодирования : libebml v1.3.4 + libmatroska v1.4.5

    Видео
    Идентификатор : 1
    Формат : AVC
    Формат/Информация : Advanced Video Codec
    Профиль формата : High@L4.1
    Параметр CABAC формата : Да
    Параметр ReFrames формата : 4 кадра
    Идентификатор кодека : V_MPEG4/ISO/AVC
    Продолжительность : 1 ч. 54 м.
    Вид битрейта : Переменный
    Битрейт : 34,9 Мбит/сек
    Максимальный битрейт : 38,0 Мбит/сек
    Ширина : 1920 пикселей
    Высота : 1080 пикселей
    Соотношение сторон : 16:9
    Режим частоты кадров : Постоянный
    Частота кадров : 23,976 (24000/1001) кадра/сек
    Цветовое пространство : YUV
    Субдискретизация насыщенности : 4:2:0
    Битовая глубина : 8 бит
    Тип развёртки : Прогрессивная
    Бит/(Пиксели*Кадры) : 0.701
    Размер потока : 28,0 Гбайт (93%)
    Default : Нет
    Forced : Нет

    Аудио #1
    Идентификатор : 2
    Формат : AC-3
    Формат/Информация : Audio Coding 3
    Расширение режима : CM (complete main)
    Параметр Endianness формата : Big
    Идентификатор кодека : A_AC3
    Продолжительность : 1 ч. 54 м.
    Вид битрейта : Постоянный
    Битрейт : 224 Кбит/сек
    Каналы : 2 канала
    Расположение каналов : Front: L R
    Частота : 48,0 КГц
    Частота кадров : 31,250 кадров/сек (1536 spf)
    Битовая глубина : 16 бит
    Метод сжатия : С потерями
    Размер потока : 184 Мбайт (1%)
    Заголовок : MVO NTV AC3 2.0 224 kbps
    Язык : Russian
    Default : Нет
    Forced : Нет

    Аудио #2
    Идентификатор : 3
    Формат : AC-3
    Формат/Информация : Audio Coding 3
    Расширение режима : CM (complete main)
    Параметр Endianness формата : Big
    Идентификатор кодека : A_AC3
    Продолжительность : 1 ч. 54 м.
    Вид битрейта : Постоянный
    Битрейт : 224 Кбит/сек
    Каналы : 2 канала
    Расположение каналов : Front: L R
    Частота : 48,0 КГц
    Частота кадров : 31,250 кадров/сек (1536 spf)
    Битовая глубина : 16 бит
    Метод сжатия : С потерями
    Размер потока : 184 Мбайт (1%)
    Заголовок : MVO TV3 AC3 2.0 224 kbps
    Язык : Russian
    Default : Нет
    Forced : Нет

    Аудио #3
    Идентификатор : 4
    Формат : AC-3
    Формат/Информация : Audio Coding 3
    Расширение режима : CM (complete main)
    Параметр Endianness формата : Big
    Идентификатор кодека : A_AC3
    Продолжительность : 1 ч. 54 м.
    Вид битрейта : Постоянный
    Битрейт : 224 Кбит/сек
    Каналы : 2 канала
    Расположение каналов : Front: L R
    Частота : 48,0 КГц
    Частота кадров : 31,250 кадров/сек (1536 spf)
    Битовая глубина : 16 бит
    Метод сжатия : С потерями
    Размер потока : 184 Мбайт (1%)
    Заголовок : DVO AC3 2.0 224 kbps
    Язык : Russian
    Default : Нет
    Forced : Нет

    Аудио #4
    Идентификатор : 5
    Формат : AC-3
    Формат/Информация : Audio Coding 3
    Расширение режима : CM (complete main)
    Параметр Endianness формата : Big
    Идентификатор кодека : A_AC3
    Продолжительность : 1 ч. 54 м.
    Вид битрейта : Постоянный
    Битрейт : 224 Кбит/сек
    Каналы : 2 канала
    Расположение каналов : Front: L R
    Частота : 48,0 КГц
    Частота кадров : 31,250 кадров/сек (1536 spf)
    Битовая глубина : 16 бит
    Метод сжатия : С потерями
    Размер потока : 184 Мбайт (1%)
    Заголовок : Gavrilov AC3 2.0 224 kbps
    Язык : Russian
    Default : Нет
    Forced : Нет

    Аудио #5
    Идентификатор : 6
    Формат : AC-3
    Формат/Информация : Audio Coding 3
    Расширение режима : CM (complete main)
    Параметр Endianness формата : Big
    Идентификатор кодека : A_AC3
    Продолжительность : 1 ч. 54 м.
    Вид битрейта : Постоянный
    Битрейт : 224 Кбит/сек
    Каналы : 2 канала
    Расположение каналов : Front: L R
    Частота : 48,0 КГц
    Частота кадров : 31,250 кадров/сек (1536 spf)
    Битовая глубина : 16 бит
    Метод сжатия : С потерями
    Размер потока : 184 Мбайт (1%)
    Заголовок : Zhivov AC3 2.0 224 kbps
    Язык : Russian
    Default : Нет
    Forced : Нет

    Аудио #6
    Идентификатор : 7
    Формат : AC-3
    Формат/Информация : Audio Coding 3
    Расширение режима : CM (complete main)
    Параметр Endianness формата : Big
    Идентификатор кодека : A_AC3
    Продолжительность : 1 ч. 54 м.
    Вид битрейта : Постоянный
    Битрейт : 224 Кбит/сек
    Каналы : 2 канала
    Расположение каналов : Front: L R
    Частота : 48,0 КГц
    Частота кадров : 31,250 кадров/сек (1536 spf)
    Битовая глубина : 16 бит
    Метод сжатия : С потерями
    Размер потока : 184 Мбайт (1%)
    Заголовок : Kuznetsov AC3 2.0 224 kbps
    Язык : Russian
    Default : Нет
    Forced : Нет

    Аудио #7
    Идентификатор : 8
    Формат : FLAC
    Формат/Информация : Free Lossless Audio Codec
    Идентификатор кодека : A_FLAC
    Продолжительность : 1 ч. 54 м.
    Вид битрейта : Переменный
    Битрейт : 1359 Кбит/сек
    Каналы : 2 канала
    Расположение каналов : Front: L R
    Частота : 48,0 КГц
    Частота кадров : 11,719 кадров/сек (4096 spf)
    Битовая глубина : 24 бит
    Размер потока : 1,09 Гбайт (4%)
    Заголовок : Original FLAC 2.0 ~1359 kbps
    Библиотека кодирования : libFLAC 1.2.1 (UTC 2007-09-17)
    Язык : English
    Default : Нет
    Forced : Нет

    Текст #1
    Идентификатор : 9
    Формат : UTF-8
    Идентификатор кодека : S_TEXT/UTF8
    Идентификатор кодека/Информация : UTF-8 Plain Text
    Продолжительность : 11 м. 48 с.
    Битрейт : 8 бит/сек
    Count of elements : 20
    Размер потока : 772 байт (0%)
    Заголовок : FORCE
    Язык : Russian
    Default : Да
    Forced : Да

    Текст #2
    Идентификатор : 10
    Формат : UTF-8
    Идентификатор кодека : S_TEXT/UTF8
    Идентификатор кодека/Информация : UTF-8 Plain Text
    Продолжительность : 1 ч. 54 м.
    Битрейт : 38 бит/сек
    Count of elements : 1332
    Размер потока : 32,0 Кбайт (0%)
    Язык : English
    Default : Нет
    Forced : Нет

    Текст #3
    Идентификатор : 11
    Формат : UTF-8
    Идентификатор кодека : S_TEXT/UTF8
    Идентификатор кодека/Информация : UTF-8 Plain Text
    Продолжительность : 1 ч. 54 м.
    Битрейт : 39 бит/сек
    Count of elements : 1426
    Размер потока : 33,3 Кбайт (0%)
    Заголовок : SDH
    Язык : English
    Default : Нет
    Forced : Нет

    Меню
    00:00:00.000 : en:00:00:00.000
    00:02:52.172 : en:00:02:52.172
    00:04:13.587 : en:00:04:13.587
    00:12:04.515 : en:00:12:04.515
    00:13:23.970 : en:00:13:23.970
    00:14:26.657 : en:00:14:26.657
    00:18:18.014 : en:00:18:18.014
    00:22:33.102 : en:00:22:33.102
    00:25:56.346 : en:00:25:56.346
    00:29:10.916 : en:00:29:10.916
    00:32:10.178 : en:00:32:10.178
    00:37:23.867 : en:00:37:23.867
    00:43:50.878 : en:00:43:50.878
    00:48:24.693 : en:00:48:24.693
    00:49:55.367 : en:00:49:55.367
    00:52:51.293 : en:00:52:51.293
    00:57:39.331 : en:00:57:39.331
    01:00:51.022 : en:01:00:51.022
    01:06:03.793 : en:01:06:03.793
    01:08:51.002 : en:01:08:51.002
    01:12:14.872 : en:01:12:14.872
    01:14:17.119 : en:01:14:17.119
    01:18:15.983 : en:01:18:15.983
    01:20:24.820 : en:01:20:24.820
    01:27:48.263 : en:01:27:48.263
    01:31:30.735 : en:01:31:30.735
    01:37:48.279 : en:01:37:48.279
    01:43:31.288 : en:01:43:31.288
    01:45:13.224 : en:01:45:13.224
    01:46:17.288 : en:01:46:17.288
    01:49:01.201 : en:01:49:01.201
    01:50:46.807 : en:01:50:46.807
    01:51:35.772 : en:01:51:35.772Свернуть
    Похожие раздачи Искать похожие
    Инструкция по скачиванию
     1  Качаем uTorrent версии 2.0 и выше
     2  После установки, жмем выше под постером на ссылку Скачать [MediaGet] или Скачать .torrent
     3  Открываем скачанный файл через соответствующий клиент: MediaGet или uTorrent
     4  Ждем пока подключатся участники
     5  Качаем
    Комментарии о  Кровь невинных / Innocent Blood | BDRemux 1080p 
    Ближайшее в кино
    Вверх