• Игры для PS4
  • Игры для PS3
  • Игры для XBOX360
  • Игры для PC
  • Игры для PS2
  • Игры для PSP
  • Для телефонов
  • Музыка
  • Книги / Журналы
  • Обои
  • Опрос
    Откуда Вы о нас узнали?
      0
    • От знакомых2,1,false,300,full
    • Из социальных сетей2,2,false,300,full
    • Из поисковых систем2,3,false,300,full
    • Другое2,4,false,300,full
    Статистика
    Всего онлайн -
    Гостей -
    Пользователей -
    Короли трекера
    
    Благодарности () Закрыть
    Год выпуска: 24 января 2008
    Оригинальное название: Meet the Spartans
    Страна: США
    Жанр:  комедия
    Возраст: 16+

    Режиссер: Джейсон Фридберг, Аарон Зельцер

    В ролях: Шон Магуайр, Кармен Электра, Кевин Сорбо, Дидрих Бадер, Мартин Клебба, Джим Пиддок, Николь Паркер, Джастин Смит, Тони Ялда, Айк Баринхолц, Кен Давшн, Майкл Арнона, Бриана Бэрран, Наташа Бласик, Леон С. Карсвелл, Хантер Клэри, Дин Кохрэн, Тим Коннолли, Дженни Коста, Джареб Доплес, Джон Ди Доменико, Робин Аткин Даунс

    Описание: Героический и безоружный Леонидас встает во главе 13 спартанцев-головорезов на защиту своей родины против вторгшихся на ее территорию персов, в рядах которых мы увидим Призрачного Гонщика, Рокки Бальбоа, Трансформеров и горбатую Пэрис Хилтон.

    Продолжительность: 01:26:25
    Перевод: Дублированный
    Оригинальная дорожка: нет

    Качество видео: BDRip 720p Исходник: Blu-Ray Remux (1080p) Формат: mp4
    Видео кодек: MPEG-4 AVC Аудио кодек: AAC
    Видео: 1280x692 (1.85:1) at 23.976 fps, AVC at 5 221 kbps avg, 0.246 bit/pixel
    Аудио №1 Rus: 48.0 KHz, AAC, 2 ch, 128.0 Kbps
    Субтитры: нет
    Навигация по главам: есть
    Размер: 3.23 GiB

    Log x264
    avs [info]: 1280x692p 1:1 @ 24000/1001 fps (cfr)
    x264 [info]: using SAR=1/1
    x264 [info]: using cpu capabilities: MMX2 SSE2Fast SSSE3 Cache64
    x264 [info]: profile High, level 4.1
    x264 [info]: frame I:1296 Avg QP:19.43 size:149474
    x264 [info]: frame P:25734 Avg QP:22.07 size: 46881
    x264 [info]: frame B:97303 Avg QP:23.92 size: 20390
    x264 [info]: consecutive B-frames: 1.7% 3.1% 3.4% 24.5% 12.4% 44.5% 4.3% 4.6% 1.5%
    x264 [info]: mb I I16..4: 4.3% 77.7% 18.1%
    x264 [info]: mb P I16..4: 1.1% 12.3% 1.7% P16..4: 42.7% 22.5% 12.7% 0.0% 0.0% skip: 6.9%
    x264 [info]: mb B I16..4: 0.1% 1.6% 0.3% B16..8: 45.7% 10.1% 2.5% direct: 8.5% skip:31.3% L0:46.4% L1:45.3% BI: 8.3%
    x264 [info]: 8x8 transform intra:81.0% inter:66.4%
    x264 [info]: coded y,uvDC,uvAC intra: 83.6% 85.4% 57.1% inter: 34.4% 29.8% 2.4%
    x264 [info]: i16 v,h,dc,p: 38% 16% 10% 35%
    x264 [info]: i8 v,h,dc,ddl,ddr,vr,hd,vl,hu: 15% 11% 27% 6% 9% 9% 8% 8% 8%
    x264 [info]: i4 v,h,dc,ddl,ddr,vr,hd,vl,hu: 34% 12% 12% 6% 9% 8% 7% 6% 6%
    x264 [info]: i8c dc,h,v,p: 54% 18% 19% 9%
    x264 [info]: Weighted P-Frames: Y:4.5% UV:2.8%
    x264 [info]: ref P L0: 41.5% 10.7% 19.6% 7.8% 6.3% 4.6% 4.5% 2.5% 2.4% 0.1% 0.0%
    x264 [info]: ref B L0: 72.0% 11.2% 6.8% 3.3% 2.7% 2.0% 1.5% 0.4%
    x264 [info]: ref B L1: 93.3% 6.7%
    x264 [info]: kb/s:5220.72
    encoded 124333 frames, 1.38 fps, 5220.72 kb/s
    Свернуть


    MI
    General
    Complete name : ...Znakomstvo_so_spartancami_2008_rasshirennaya_versiya_KinoGadget.mp4
    Format : MPEG-4
    Format profile : Base Media
    Codec ID : isom (isom)
    File size : 3.23 GiB
    Duration : 1 h 26 min
    Overall bit rate mode : Variable
    Overall bit rate : 5 357 kb/s
    Movie name : Знакомство со спартанцами | KinoGadget
    Performer : Джейсон Фридберг, Аарон Зельцер
    Director : Джейсон Фридберг / Аарон Зельцер
    Actor : Шон Магуайр / Кармен Электра / Кевин Сорбо / Дидрих Бадер / Мартин Клебба / Джим Пиддок / Николь Паркер / Джастин Смит / Тони Ялда / Айк Баринхолц / Кен Давшн / Майкл Арнона / Бриана Бэрран / Наташа Бласик / Леон С. Карсвелл / Хантер Клэри / Дин Кохрэн
    Screenplay by : Джейсон Фридберг / Аарон Зельцер
    Producer : Джейсон Фридберг / Питер Сафран / Аарон Зельцер
    Genre : Comedy
    ContentType : Short Film
    Recorded date : 2008
    Encoded date : UTC 2017-10-01 18:52:58
    Tagged date : UTC 2017-10-01 19:04:48
    Cover : Yes
    ContentRating : mpaa|PG-13|300|
    LongDeion : Героический и безоружный Леонидас встает во главе 13 спартанцев-головорезов на защиту своей родины против вторгшихся на ее территорию персов, в рядах которых мы увидим Призрачного Гонщика, Рокки Бальбоа, Трансформеров и горбатую Пэрис Хилтон.
    HDVideo : Yes

    Video
    ID : 1
    Format : AVC
    Format/Info : Advanced Video Codec
    Format profile : High@L4.1
    Format settings, CABAC : Yes
    Format settings, ReFrames : 9 frames
    Codec ID : avc1
    Codec ID/Info : Advanced Video Coding
    Duration : 1 h 26 min
    Bit rate : 5 221 kb/s
    Maximum bit rate : 22.7 Mb/s
    Width : 1 280 pixels
    Height : 692 pixels
    Display aspect ratio : 1.85:1
    Frame rate mode : Constant
    Frame rate : 23.976 (24000/1001) FPS
    Color space : YUV
    Chroma subsampling : 4:2:0
    Bit depth : 8 bits
    Scan type : Progressive
    Bits/(Pixel*Frame) : 0.246
    Stream size : 3.15 GiB (97%)
    Writing library : x264 core 148 r2744 b97ae06
    Encoding settings : cabac=1 / ref=9 / deblock=1:-2:-1 / analyse=0x3:0x113 / me=umh / subme=7 / psy=1 / psy_rd=1.00:0.00 / mixed_ref=1 / me_range=32 / chroma_me=1 / trellis=2 / 8x8dct=1 / cqm=0 / deadzone=21,11 / fast_pskip=0 / chroma_qp_offset=-2 / threads=3 / lookahead_threads=1 / sliced_threads=0 / nr=0 / decimate=1 / interlaced=0 / bluray_compat=0 / constrained_intra=0 / bframes=8 / b_pyramid=2 / b_adapt=2 / b_bias=0 / direct=1 / weightb=1 / open_gop=0 / weightp=2 / keyint=250 / keyint_min=25 / scenecut=40 / intra_refresh=0 / rc_lookahead=60 / rc=crf / mbtree=1 / crf=21.0 / qcomp=0.60 / qpmin=0 / qpmax=69 / qpstep=4 / vbv_maxrate=62500 / vbv_bufsize=78125 / crf_max=0.0 / nal_hrd=none / filler=0 / ip_ratio=1.40 / aq=1:1.00
    Encoded date : UTC 2017-10-01 18:40:00
    Tagged date : UTC 2017-10-01 18:54:14

    Audio
    ID : 2
    Format : AAC
    Format/Info : Advanced Audio Codec
    Format profile : LC
    Codec ID : 40
    Duration : 1 h 26 min
    Bit rate mode : Variable
    Bit rate : 128 kb/s
    Maximum bit rate : 135 kb/s
    Channel(s) : 2 channels
    Channel positions : Front: L R
    Sampling rate : 48.0 kHz
    Frame rate : 46.875 FPS (1024 spf)
    Compression mode : Lossy
    Stream size : 79.1 MiB (2%)
    Language : Russian
    Encoded date : UTC 2017-10-01 18:46:03
    Tagged date : UTC 2017-10-01 18:54:14

    Menu
    Свернуть


    Скриншоты
    [screen]http://i89.fastpic.ru/big/2017/1001/c1/2ffe927260d510dcb19288d685b17fc1.jpg[/screen][screen]http://i89.fastpic.ru/big/2017/1001/3f/d097a984cb18f42b8a82aae73ba6e33f.jpg[/screen][screen]http://i89.fastpic.ru/big/2017/1001/60/5ea5da5f885912485f918893ac2ed960.jpg[/screen][screen]http://i89.fastpic.ru/big/2017/1001/b0/1cd5e6c099a7c2216448c922d40bf5b0.jpg[/screen]
    Свернуть


    Данный рип предназначен для просмотра на мобильных гаджетах с поддержкой формата mp4
    Похожие раздачи Искать похожие
    Инструкция по скачиванию
     1  Качаем uTorrent версии 2.0 и выше
     2  После установки, жмем выше под постером на ссылку Скачать [MediaGet] или Скачать .torrent
     3  Открываем скачанный файл через соответствующий клиент: MediaGet или uTorrent
     4  Ждем пока подключатся участники
     5  Качаем
    Комментарии о  Знакомство со Спартанцами / Meet the Spartans | BDRip 720p 
    Ближайшее в кино
    Вверх