• Игры для PS4
  • Игры для PS3
  • Игры для XBOX360
  • Игры для PC
  • Игры для PS2
  • Игры для PSP
  • Для телефонов
  • Музыка
  • Книги / Журналы
  • Обои
  • Опрос
    Откуда Вы о нас узнали?
      0
    • От знакомых2,1,false,300,full
    • Из социальных сетей2,2,false,300,full
    • Из поисковых систем2,3,false,300,full
    • Другое2,4,false,300,full
    Статистика
    Всего онлайн -
    Гостей -
    Пользователей -
    Короли трекера
    
    Благодарности () Закрыть
    Информация о фильме
    Название: Занесло
    Второе название: Перенаправленный
    Оригинальное название: Redirected
    Год выхода: 2014
    Жанр: боевик, триллер, комедия, криминал
    Режиссер: Эмилис Веливис / Emilis Velyvis
    В ролях: Винни Джонс, Скот Уильямс, Гил Дарнелл, Оливер Джексон, Энтони Страхан, Андрюс Жюраускас, Витаутас Шапранаускас, Артур Смольянинов, Вита Сяусюнайте, Моника

    О фильме: Картина повествует о необычайных приключениях в Литве четырёх англичан — Майкла, Джонни, Бена и Тима. После удачного налёта в Лондоне на нелегальное казино, «славная четвёрка» садится в самолет, летящий в Малайзию. Кажется, все идёт по плану. Но… Никто не мог предусмотреть проделок вулкана Эйяфьядлайёкюдля, извержение которого вынудило самолет с англичанами сесть в Вильнюсе. Мало того, помимо местных разборок и приключений на все части тела, друзьям приходится спасаться от жаждущего мести владельца ограбленного казино.



    Страна: Литва, Великобритания
    Студия: Kinokultas, Wellington Films
    Продолжительность: 01:39:08
    Перевод: Авторский (одноголосый закадровый) В.Котов + Любительский (многоголосый закадровый) Paradox

    Файл
    Кодек: x264
    Качество: HDRip-AVC
    Видео: MPEG-4 AVC, 768x322 (2.40:1) at 23.976 fps, ~896 kbps
    Аудио #1: AAC-LC, 2 ch, 48 kHz, 76 kbps | AVO [Котов]
    Аудио #2: AAC-LC, 2 ch, 48 kHz, 76 kbps | MVO [Paradox]
    Субтитры: русские, английские

    В переводах, в том числе субтитрах, присутствует ненормативная лексика!

    Семпл

    MediaInfo
    General
    Unique ID                                : 182466704756307128477515643770258283055 (0x8945CF1E302694309DB6C58E55375A2F)
    Complete name                            : C:UsersDownloadsRedirected.2014.HDRip-AVC.mkv
    Format                                   : Matroska
    Format version                           : Version 4 / Version 2
    File size                                : 745 MiB
    Duration                                 : 1 h 39 min
    Overall bit rate                         : 1 051 kb/s
    Encoded date                             : UTC 2017-10-02 01:40:59
    Writing application                      : mkvmerge v9.6.0 ("Slave To Your Mind") 64bit
    Writing library                          : libebml v1.3.4 + libmatroska v1.4.5

    Video
    ID                                       : 1
    Format                                   : AVC
    Format/Info                              : Advanced Video Codec
    Format profile                           : High@L4.1
    Format settings                          : CABAC / 10 Ref Frames
    Format settings, CABAC                   : Yes
    Format settings, RefFrames               : 10 frames
    Codec ID                                 : V_MPEG4/ISO/AVC
    Duration                                 : 1 h 39 min
    Bit rate                                 : 896 kb/s
    Width                                    : 768 pixels
    Height                                   : 322 pixels
    Display aspect ratio                     : 2.40:1
    Frame rate mode                          : Constant
    Frame rate                               : 23.976 (24000/1001) FPS
    Color space                              : YUV
    Chroma subsampling                       : 4:2:0
    Bit depth                                : 8 bits
    Scan type                                : Progressive
    Bits/(Pixel*Frame)                       : 0.151
    Stream size                              : 635 MiB (85%)
    Writing library                          : x264 core 146 r2538 121396c
    Encoding settings                        : cabac=1 / ref=10 / deblock=1:-2:-1 / analyse=0x3:0x113 / me=umh / subme=11 / psy=1 / psy_rd=1.00:0.10 / mixed_ref=1 / me_range=32 / chroma_me=1 / trellis=2 / 8x8dct=1 / cqm=0 / deadzone=21,11 / fast_pskip=0 / chroma_qp_offset=-3 / threads=6 / lookahead_threads=1 / sliced_threads=0 / nr=0 / decimate=0 / interlaced=0 / bluray_compat=0 / constrained_intra=0 / bframes=10 / b_pyramid=2 / b_adapt=2 / b_bias=0 / direct=3 / weightb=1 / open_gop=0 / weightp=2 / keyint=240 / keyint_min=23 / scenecut=40 / intra_refresh=0 / rc_lookahead=40 / rc=2pass / mbtree=0 / bitrate=896 / ratetol=1.0 / qcomp=0.60 / qpmin=0 / qpmax=69 / qpstep=4 / cplxblur=20.0 / qblur=0.5 / vbv_maxrate=50000 / vbv_bufsize=62500 / nal_hrd=none / filler=0 / ip_ratio=1.40 / pb_ratio=1.30 / aq=1:1.00
    Default                                  : Yes
    Forced                                   : No

    Audio #1
    ID                                       : 2
    Format                                   : AAC
    Format/Info                              : Advanced Audio Codec
    Format profile                           : LC
    Codec ID                                 : A_AAC-2
    Duration                                 : 1 h 39 min
    Bit rate                                 : 76.0 kb/s
    Channel(s)                               : 2 channels
    Channel positions                        : Front: L R
    Sampling rate                            : 48.0 kHz
    Frame rate                               : 46.875 FPS (1024 SPF)
    Compression mode                         : Lossy
    Delay relative to video                  : 9 ms
    Stream size                              : 53.9 MiB (7%)
    Title                                    : AVO [Котов]
    Language                                 : Russian
    Default                                  : Yes
    Forced                                   : No

    Audio #2
    ID                                       : 3
    Format                                   : AAC
    Format/Info                              : Advanced Audio Codec
    Format profile                           : LC
    Codec ID                                 : A_AAC-2
    Duration                                 : 1 h 39 min
    Bit rate                                 : 76.0 kb/s
    Channel(s)                               : 2 channels
    Channel positions                        : Front: L R
    Sampling rate                            : 48.0 kHz
    Frame rate                               : 46.875 FPS (1024 SPF)
    Compression mode                         : Lossy
    Delay relative to video                  : 9 ms
    Stream size                              : 53.9 MiB (7%)
    Title                                    : MVO [Paradox]
    Language                                 : Russian
    Default                                  : No
    Forced                                   : No

    Text #1
    ID                                       : 4
    Format                                   : UTF-8
    Codec ID                                 : S_TEXT/UTF8
    Codec ID/Info                            : UTF-8 Plain Text
    Duration                                 : 1 h 33 min
    Bit rate                                 : 70 b/s
    Count of elements                        : 1137
    Stream size                              : 48.7 KiB (0%)
    Title                                    : Full
    Language                                 : Russian
    Default                                  : Yes
    Forced                                   : No

    Text #2
    ID                                       : 5
    Format                                   : UTF-8
    Codec ID                                 : S_TEXT/UTF8
    Codec ID/Info                            : UTF-8 Plain Text
    Duration                                 : 1 h 32 min
    Bit rate                                 : 32 b/s
    Count of elements                        : 891
    Stream size                              : 22.2 KiB (0%)
    Title                                    : Full
    Language                                 : English
    Default                                  : No
    Forced                                   : No

    Свернуть


    Скриншоты
    [screen]http://i89.fastpic.ru/big/2017/1002/13/d696d57ccfecc6053a034b44b1254b13.png[/screen][screen]http://i89.fastpic.ru/big/2017/1002/97/68d076ab4d51d514ed5df36cba46d597.png[/screen][screen]http://i89.fastpic.ru/big/2017/1002/b8/cb31672beb58df6c457eac73ee4768b8.png[/screen][screen]http://i89.fastpic.ru/big/2017/1002/d7/57e2d1c3f1d1d60a06ef4ae2e68e3dd7.png[/screen][screen]http://i89.fastpic.ru/big/2017/1002/71/484d1951ea74b5e52972c127a5525c71.png[/screen][screen]http://i89.fastpic.ru/big/2017/1002/ca/85d4d72057ba66e13921ebc74d6611ca.png[/screen][screen]http://i89.fastpic.ru/big/2017/1002/88/578b7795d9ea35a62f54e6a6560d1488.png[/screen][screen]http://i89.fastpic.ru/big/2017/1002/d2/b6fc245a7a19a5724b1e83de02f7dcd2.png[/screen][screen]http://i89.fastpic.ru/big/2017/1002/43/e3e678f2380e3c85ef9ffbd631cbb143.png[/screen][screen]http://i89.fastpic.ru/big/2017/1002/e1/85dd3d95a00c4ece6d6efe460f6ea9e1.png[/screen][screen]http://i91.fastpic.ru/big/2017/1002/1d/408aa2dbbd6062903836214381c2291d.png[/screen][screen]http://i91.fastpic.ru/big/2017/1002/94/53c0b97db5f5f04fd78acdf2f5894c94.png[/screen]Свернуть
    Похожие раздачи Искать похожие
    Инструкция по скачиванию
     1  Качаем uTorrent версии 2.0 и выше
     2  После установки, жмем выше под постером на ссылку Скачать [MediaGet] или Скачать .torrent
     3  Открываем скачанный файл через соответствующий клиент: MediaGet или uTorrent
     4  Ждем пока подключатся участники
     5  Качаем
    Комментарии о  Занесло / Перенаправленный / Redirected | HDRip-AVC 
    Ближайшее в кино
    Вверх