• Игры для PS4
  • Игры для PS3
  • Игры для XBOX360
  • Игры для PC
  • Игры для PS2
  • Игры для PSP
  • Для телефонов
  • Музыка
  • Книги / Журналы
  • Обои
  • Опрос
    Откуда Вы о нас узнали?
      0
    • От знакомых2,1,false,300,full
    • Из социальных сетей2,2,false,300,full
    • Из поисковых систем2,3,false,300,full
    • Другое2,4,false,300,full
    Статистика
    Всего онлайн -
    Гостей -
    Пользователей -
    Короли трекера
    
    Благодарности () Закрыть
    Информация о фильме
    Название: Другие 48 часов
    Оригинальное название: Another 48 Hrs.
    Год выхода: 1990
    Жанр:  боевик, триллер, драма, комедия, криминал
    Режиссер: Уолтер Хилл
    В ролях: Эдди Мерфи, Ник Нолти, Брайон Джеймс, Кевин Тиге, Эд О"Росс, Дэвид Энтони Маршалл, Эндрю Дивофф, Берни Кейси, Брент Дженнингс, Тед Марклэнд

    О фильме :
    Толпа охотится за головой Регги. Автобус, в котором он едет, переворачивается 17 раз. Его дорогой “Порше” превращается в груду металла. Подонки в баре ещё не знают, как опасно раздражать Регги. А ночь ещё только начинается. За эти 48 часов Регги и Джек перевернут весь Сан-Франциско в погоне за неуловимым наркобароном. Мальчики вернулись в город… заварушка на улицах начинается!



    Выпущено: США, Eddie Murphy Productions, Paramount Pictures
    Продолжительность: 01:31:23
    Перевод: Профессиональный (двухголосый, закадровый) - НТВ+

    Файл
    Формат: MKV
    Качество: HDTVRip-AVC
    Видео: MPEG-4 AVC, 736x412, ~ 1067 Кбит/с
    Аудио: [img]http://i93.fastpic.ru/big/2017/0727/c0/4b72f0369a3393219ed5935e91fc15c0.gif[/img] AAC-LC, 2 ch, ~72 Кбит/с

    MI
    Общее
    Уникальный идентификатор : 218018230371630076323935245992058201357 (0xA404C8A90CE411A98A82888886E8A50D)
    Полное имя : D:MOVIESAnother 48 Hrs.1990.ExKinoRay.mkv
    Формат : Matroska
    Версия формата : Version 4 / Version 2
    Размер файла : 746 Мбайт
    Продолжительность : 1 ч. 31 м.
    Общий поток : 1141 Кбит/сек
    Дата кодирования : UTC 2017-10-02 06:38:09
    Программа кодирования : mkvmerge v15.0.0 ("Duel with the Devil") 64-bit
    Библиотека кодирования : libebml v1.3.5 + libmatroska v1.4.5

    Видео
    Идентификатор : 1
    Формат : AVC
    Формат/Информация : Advanced Video Codec
    Профиль формата : High@L4.1
    Параметр CABAC формата : Да
    Параметр RefFrames формата : 10 кадров
    Идентификатор кодека : V_MPEG4/ISO/AVC
    Продолжительность : 1 ч. 31 м.
    Битрейт : 1067 Кбит/сек
    Ширина : 736 пикселей
    Высота : 412 пикселей
    Соотношение сторон : 16:9
    Режим частоты кадров : Постоянный
    Частота кадров : 25,000 кадров/сек
    Цветовое пространство : YUV
    Субдискретизация насыщенности : 4:2:0
    Битовая глубина : 8 бит
    Тип развёртки : Прогрессивная
    Бит/(Пиксели*Кадры) : 0.141
    Размер потока : 697 Мбайт (93%)
    Библиотека кодирования : x264 core 152 r2851kMod ba24899
    Настройки программы : cabac=1 / ref=10 / deblock=1:-3:-3 / analyse=0x3:0x113 / me=umh / subme=11 / psy=1 / fade_compensate=0.00 / psy_rd=1.00:0.02 / mixed_ref=1 / me_range=32 / chroma_me=1 / trellis=2 / 8x8dct=1 / cqm=0 / deadzone=21,11 / fast_pskip=0 / chroma_qp_offset=-3 / threads=6 / lookahead_threads=1 / sliced_threads=0 / nr=0 / decimate=0 / interlaced=0 / bluray_compat=0 / constrained_intra=0 / bframes=10 / b_pyramid=2 / b_adapt=2 / b_bias=0 / direct=3 / weightb=1 / open_gop=0 / weightp=2 / keyint=250 / keyint_min=24 / scenecut=40 / intra_refresh=0 / rc_lookahead=40 / rc=2pass / mbtree=1 / bitrate=1067 / ratetol=1.0 / qcomp=0.60 / qpmin=0 / qpmax=69 / qpstep=4 / cplxblur=20.0 / qblur=0.5 / vbv_maxrate=50000 / vbv_bufsize=62500 / nal_hrd=none / filler=0 / ip_ratio=1.40 / aq=3:1.00
    Default : Да
    Forced : Нет

    Аудио
    Идентификатор : 2
    Формат : AAC
    Формат/Информация : Advanced Audio Codec
    Профиль формата : LC
    Идентификатор кодека : A_AAC
    Продолжительность : 1 ч. 31 м.
    Битрейт : 72,0 Кбит/сек
    Каналы : 2 канала
    Расположение каналов : Front: L R
    Частота : 48,0 КГц
    Частота кадров : 46,875 кадров/сек (1024 SPF)
    Метод сжатия : С потерями
    Задержка видео : 9 мс.
    Размер потока : 47,1 Мбайт (6%)
    Default : Да
    Forced : Нет
    Свернуть


    Скриншоты
    [screen]http://i91.fastpic.ru/big/2017/1002/ce/8da179b240c583988984b92bf50795ce.jpg[/screen][screen]http://i95.fastpic.ru/big/2017/1002/92/feb102238731bcf34fa2f94246d6d992.jpg[/screen][screen]http://i96.fastpic.ru/big/2017/1002/be/ae6bbfdec5e68974734916c80ae77cbe.jpg[/screen][screen]http://i89.fastpic.ru/big/2017/1002/90/1db8628aa2fc1bd63be10ca37bc74e90.jpg[/screen]

    [screen]http://i91.fastpic.ru/big/2017/1002/8c/fbbab6b287fb8c81db868533d88bda8c.jpg[/screen][screen]http://i96.fastpic.ru/big/2017/1002/80/552376c7b0d50ba5f35fd3ef58fbca80.jpg[/screen][screen]http://i91.fastpic.ru/big/2017/1002/39/e6be9d28eaf9db3f297bbc1fae2d3439.jpg[/screen][screen]http://i89.fastpic.ru/big/2017/1002/a0/7c0f2ab582b2f3b569b1b2c6c7a714a0.jpg[/screen]Свернуть
    Похожие раздачи Искать похожие
    Инструкция по скачиванию
     1  Качаем uTorrent версии 2.0 и выше
     2  После установки, жмем выше под постером на ссылку Скачать [MediaGet] или Скачать .torrent
     3  Открываем скачанный файл через соответствующий клиент: MediaGet или uTorrent
     4  Ждем пока подключатся участники
     5  Качаем
    Комментарии о  Другие 48 часов / Another 48 Hrs | HDTVRip-AVC 
    Ближайшее в кино
    Вверх