• Игры для PS4
  • Игры для PS3
  • Игры для XBOX360
  • Игры для PC
  • Игры для PS2
  • Игры для PSP
  • Для телефонов
  • Музыка
  • Книги/Журналы
  • Обои
  •  
    Опрос
    Откуда Вы о нас узнали?
      0
    • От знакомых2,1,false,300,full
    • Из социальных сетей2,2,false,300,full
    • Из поисковых систем2,3,false,300,full
    • Другое2,4,false,300,full
    Статистика
    Загрузка...
    Планета обезьян: Война / War for the Planet of the Apes | WEBRip 720p
    Статус  Проверено
    В закладки
    Модератор: Max

    Планета обезьян: Война / War for the Planet of the Apes | WEBRip 720p [Фильмы 2017] скачать торрентом/torrent бесплатно

    Год выхода
    Язык
    Закачал
    Max | 02 октября 2017 в 14ч 17м 22с
    Раздел
    Отзывов
    0
    Раздают: 9 Качают: 3 Скачали: 39 Размер: 3.37 GB
    Инфо о раздаче | Благодарности |
    0/5
    0
    0 5 0
    Поддержи нас — расскажи друзьям!
    Orbitum
    Новый интернет-браузер Быстрее загружает сайты Экономит интернет—трафик Меняет оформление страницы ВК Блокирует всю рекламу на сайтах Загружает торренты как

    µTorrent

    клиент
    Объеденяет все твои чаты из соц. сетей в один Проигрывает твою музыку не заходя во ВКонтакте
    Скачать и многое другое... Подробности на сайте производителя
    Информация о фильме
    Название: Планета обезьян: Война
    Оригинальное название: War for the Planet of the Apes
    Год выхода: 2017
    Жанр: фантастика, боевик, триллер

    Режиссер: Мэтт Ривз

    В ролях: Энди Серкис, Вуди Харрельсон, Стив Зан, Карин Коновал, Амайя Миллер, Терри Нотари, Тай Олссон, Майкл Адамуэйт, Тоби Кеббелл, Гэбриел Чаварриа

    О фильме:
    Армию генетически модифицированных обезьян ожидает новый вызов: они вынуждены вступить в смертельную схватку с армией людей под руководством безжалостного полковника. После невообразимых потерь среди своих воинов вождь обезьян Цезарь начинает личную борьбу с темными инстинктами и собирается отомстить за весь свой вид. В конце концов он и полковник должны будут сойтись в эпической битве, которая решит, кто теперь будет править на Земле — люди или обезьяны.



    Страна: США, Канада, Новая Зеландия
    Продолжительность: 02:18:15
    Перевод: Любительское одноголосое (BadBajo) | Исходник

    Файл
    Кодек: x.264
    Качество: WEBRip 720p
    Видео: AVC, x.264, 1280x720 (16:9), 30.000 fps, 3 053 Kbps (0.110 bit/pixel)
    Звук 1:   AC-3, 48.0 KHz, 2 ch, 192 Kbps, CBR | RUS
    Звук 2:   AAC, 22.0 KHz, 2 ch, 224 Kbps | ENG
    Субтитры: Корейские (вшитые), английские

    [img]http://i89.fastpic.ru/big/2017/1002/52/43e20ec329c9e837c7d38acdbd5ff352.jpg[/img]

    MI
    Общее
    Уникальный идентификатор                 : 200419903078731986606359155690365471264 (0x96C77822AC03F63CA0BD7BD36D434A20)
    Полное имя                               : War.for.the.Planet.of.the.Apes.2017.720p.WEBRip.mkv
    Формат                                   : Matroska
    Версия формата                           : Version 4 / Version 2
    Размер файла                             : 3,37 Гбайт
    Продолжительность                        : 2 ч. 18 м.
    Общий поток                              : 3472 Кбит/сек
    Дата кодирования                         : UTC 2017-10-02 08:30:27
    Программа кодирования                    : mkvmerge v8.3.0 ("Over the Horizon") 64bit
    Библиотека кодирования                   : libebml v1.3.1 + libmatroska v1.4.2

    Видео
    Идентификатор                            : 1
    Формат                                   : AVC
    Формат/Информация                        : Advanced Video Codec
    Профиль формата                          : Baseline@L3.1
    Параметр CABAC формата                   : Нет
    Параметр ReFrames формата                : 1 кадр
    Идентификатор кодека                     : V_MPEG4/ISO/AVC
    Продолжительность                        : 2 ч. 18 м.
    Битрейт                                  : 3053 Кбит/сек
    Ширина                                   : 1280 пикселей
    Высота                                   : 720 пикселей
    Соотношение сторон                       : 16:9
    Режим частоты кадров                     : Постоянный
    Частота кадров                           : 30,000 кадров/сек
    Цветовое пространство                    : YUV
    Субдискретизация насыщенности            : 4:2:0
    Битовая глубина                          : 8 бит
    Тип развёртки                            : Прогрессивная
    Бит/(Пиксели*Кадры)                      : 0.110
    Размер потока                            : 2,96 Гбайт (88%)
    Язык                                     : English
    Default                                  : Да
    Forced                                   : Нет

    Аудио #1
    Идентификатор                            : 2
    Формат                                   : AC-3
    Формат/Информация                        : Audio Coding 3
    Параметр Endianness формата              : Big
    Идентификатор кодека                     : A_AC3
    Продолжительность                        : 2 ч. 18 м.
    Вид битрейта                             : Постоянный
    Битрейт                                  : 192 Кбит/сек
    Каналы                                   : 2 канала
    Расположение каналов                     : Front: L R
    Частота                                  : 48,0 КГц
    Частота кадров                           : 31,250 кадров/сек (1536 spf)
    Битовая глубина                          : 16 бит
    Метод сжатия                             : С потерями
    Задержка видео                           : -93 мс.
    Размер потока                            : 191 Мбайт (6%)
    Язык                                     : Russian
    Default                                  : Да
    Forced                                   : Нет

    Аудио #2
    Идентификатор                            : 3
    Формат                                   : AAC
    Формат/Информация                        : Advanced Audio Codec
    Профиль формата                          : LC
    Идентификатор кодека                     : A_AAC
    Продолжительность                        : 2 ч. 18 м.
    Битрейт                                  : 224 Кбит/сек
    Каналы                                   : 2 канала
    Расположение каналов                     : Front: L R
    Частота                                  : 22,05 КГц
    Частота кадров                           : 21,533 кадра/сек (1024 spf)
    Метод сжатия                             : С потерями
    Задержка видео                           : -93 мс.
    Размер потока                            : 222 Мбайт (6%)
    Язык                                     : English
    Default                                  : Нет
    Forced                                   : Нет

    Текст
    Идентификатор                            : 4
    Формат                                   : UTF-8
    Идентификатор кодека                     : S_TEXT/UTF8
    Идентификатор кодека/Информация          : UTF-8 Plain Text
    Продолжительность                        : 2 ч. 10 м.
    Битрейт                                  : 16 бит/сек
    ElementCount                             : 628
    Размер потока                            : 16,2 Кбайт (0%)
    Язык                                     : English
    Default                                  : Да
    Forced                                   : Нет


    Скриншоты
    [img]http://i4.imageban.ru/out/2017/10/02/97ae94e8e9885207c4d4bd4c8e1b272a.png[/img][img]http://i6.imageban.ru/out/2017/10/02/8033f5dab0ac674d66696aaf0059c498.png[/img][img]http://i5.imageban.ru/out/2017/10/02/2db11ca55b1063c05fa4675b5590a8d1.png[/img][img]http://i6.imageban.ru/out/2017/10/02/3225ec9d88bd41405393b4532f8a4416.png[/img][img]http://i1.imageban.ru/out/2017/10/02/551d778ffdae95f29785ab7ad768100d.png[/img]
    Еще похожие »

    Как скачать?
    1. Качаем UTorrent версии 2.0 и выше отсюда
    2. После установки, жмем на ссылку Скачать торрент.
    3. Открываем его через utorrent.
    4. Ждем пока подключатся участники.
    5. Качаем.


    Комментарии о Планета обезьян: Война / War for the Planet of the Apes | WEBRip 720p
    Добавлять комментарии могут только зарегистрированные пользователи

    Зарегистрироваться или Войти


    Ближайшее в кино
    • Безумие Георга III дата выхода 20 ноября 2018Безумие Георга III
      Дата выхода: 20 ноября 2018
    • 7226|Догвилль|22 ноября 2018|200|300Догвилль
      Дата выхода: 22 ноября 2018
    • 1009784|Апгрейд|22 ноября 2018|200|300Апгрейд
      Дата выхода: 22 ноября 2018
    • 988782|Ральф против интернета|22 ноября 2018|200|300Ральф против интернета
      Дата выхода: 22 ноября 2018
    • 965901|Вдовы|22 ноября 2018|200|300Вдовы
      Дата выхода: 22 ноября 2018
    • 1011685|Нация убийц|22 ноября 2018|200|300Нация убийц
      Дата выхода: 22 ноября 2018
    • 891414|Жена|22 ноября 2018|200|300Жена
      Дата выхода: 22 ноября 2018
    • 934207|Мотылёк|22 ноября 2018|200|300Мотылёк
      Дата выхода: 22 ноября 2018
    • 1044912|Вечерняя школа|22 ноября 2018|200|300Вечерняя школа
      Дата выхода: 22 ноября 2018
    • 1036188|Быть Астрид Линдгрен|22 ноября 2018|200|300Быть Астрид Линдгрен
      Дата выхода: 22 ноября 2018
    • 1048852|Помешанный на времени|22 ноября 2018|200|300Помешанный на времени
      Дата выхода: 22 ноября 2018
    • 1049775|Подбросы|22 ноября 2018|200|300Подбросы
      Дата выхода: 22 ноября 2018
    • 1108741|Я — миллиардер|22 ноября 2018|200|300Я — миллиардер
      Дата выхода: 22 ноября 2018
    • 1118041|Три лица|22 ноября 2018|200|300Три лица
      Дата выхода: 22 ноября 2018
    • 1209190|МУЛЬТ в кино. Выпуск 85. Мамин праздник|24 ноября 2018|200|300МУЛЬТ в кино. Выпуск 85. Мамин праздник
      Дата выхода: 24 ноября 2018
    Вверх