• Игры для PS4
  • Игры для PS3
  • Игры для XBOX360
  • Игры для PC
  • Игры для PS2
  • Игры для PSP
  • Для телефонов
  • Музыка
  • Книги/Журналы
  • Обои
  •  
    Опрос
    Откуда Вы о нас узнали?
      0
    • От знакомых2,1,false,300,full
    • Из социальных сетей2,2,false,300,full
    • Из поисковых систем2,3,false,300,full
    • Другое2,4,false,300,full
    Статистика
    Загрузка...
    Константин: Повелитель тьмы / Constantine | BDRemux
    Статус  Проверено
    В закладки
    Модератор: Max

    Константин: Повелитель тьмы / Constantine | BDRemux [Фильмы 2005] скачать торрентом/torrent бесплатно

    Год выхода
    Язык
    Закачал
    Max | 02 октября 2017 в 15ч 24м 54с
    Раздел
    Отзывов
    0
    Раздают: 6 Качают: 0 Скачали: 7 Размер: 12.88 GB
    Инфо о раздаче | Благодарности |
    0/5
    0
    0 5 0
    Поддержи нас — расскажи друзьям!
    Orbitum
    Новый интернет-браузер Быстрее загружает сайты Экономит интернет—трафик Меняет оформление страницы ВК Блокирует всю рекламу на сайтах Загружает торренты как

    µTorrent

    клиент
    Объеденяет все твои чаты из соц. сетей в один Проигрывает твою музыку не заходя во ВКонтакте
    Скачать и многое другое... Подробности на сайте производителя
    Информация о фильме
    Название: Константин: Повелитель тьмы
    Оригинальное название: Constantine
    Год выхода: 2005
    Жанр: Фэнтези, боевик, триллер
    Режиссер: Фрэнсис Лоуренс / Francis Lawrence
    В ролях: Киану Ривз, Рейчел Вайс, Шайа ЛаБаф, Джимон Хунсу, Макс Бейкер, Прюитт Тэйлор Винс, Гэвин Россдэйл, Тильда Суинтон, Петер Стормаре, Джесси Рамирез

    О фильме:
    Джону Константину удалось не только побывать в аду, но и вернуться обратно. Родившись с неугодным самому себе талантом — способностью распознавать помесь ангелов и демонов, которые бродят по земле в облике людей, — Константин под давлением обстоятельств пытается совершить самоубийство, лишь бы избавиться от мучительных видений. Но неудачно. Воскрешенный против собственной воли он снова оказывается в мире живых. Теперь, отмеченный печатью суицида и получивший временное право на жизнь, он патрулирует границу, разделяющую рай и ад, тщетно надеясь на обретение спасения путем сражения с земными ставленниками зла. Но и Константин не святой. Приходя всё в большее разочарование от окружающего мира, и будучи не в ладу с миром потусторонним, ожесточившись от тяжелой жизни, он начинает спиваться, с презрением относясь к самой идее героизма. Константин будет бороться за вашу душу, но ему не нужно ни ваше восхищение, ни ваша благодарность. И уж меньше всего ваше сочувствие! Все, что ему нужно, — это найти выход. Когда отчаявшаяся, но не растерявшая свой скептицизм сотрудница полиции заручается поддержкой Константина для раскрытия загадочного самоубийства ее сестры-близнеца, расследование заводит их в мир демонов и ангелов, что находится в подземелье современного мегаполиса Лос-Анджелеса. Попав в череду катастрофических событий иного мира, Константин и Анджела настолько увязают в них, что обретение мира и спокойствия любой ценой становится для них самоцелью…



    Страна: США, Германия
    Студия: Warner Bros. Pictures
    Продолжительность: 02:00:47
    Перевод: Профессиональный (дублированный), авторский (одноголосый закадровый)

    Файл
    Формат: MKV
    Качество: BDRemux 1080p
    Видео: VC-1 Video / 11884 kbps / 1080p / 23,976 fps / 16:9 / Advanced Profile 3
    Звук:
    Russian: Dolby Digital Audio / 5.1 / 48 kHz / 640 kbps - Дубляж
    Russian: DTS-HD MA / 5.1 / 48 kHz / 1998 kbps - A. Матвеев
    English: Dolby Digital Audio / 5.1 / 48 kHz / 640 kbps - Оригинал

    MediaInfo
    General
    Complete name                    : D:FilmsConstantine (2005) BDRemux 1080p.mkv
    Format                           : Matroska
    File size                        : 12.9 GiB
    Duration                         : 2h 0mn
    Overall bit rate                 : 15.3 Mbps
    Movie name                       : Константин: Повелитель тьмы / Constantine (2005)
    Encoded date                     : UTC 2017-10-02 10:57:38
    Writing application              : mkvmerge v4.9.1 ("Ich will") сборка от Jul 11 2011 23:53:15
    Writing library                  : libebml v1.2.1 + libmatroska v1.1.1

    Video
    ID                               : 1
    Format                           : VC-1
    Format profile                   : AP@L3
    Codec ID                         : WVC1
    Codec ID/Hint                    : Microsoft
    Duration                         : 2h 0mn
    Width                            : 1 920 pixels
    Height                           : 1 080 pixels
    Display aspect ratio             : 16:9
    Frame rate                       : 23.976 fps
    Resolution                       : 24 bits
    Colorimetry                      : 4:2:0
    Scan type                        : Progressive
    Title                            : Константин: Повелитель тьмы / Constantine (2005)

    Audio #1
    ID                               : 2
    Format                           : AC-3
    Format/Info                      : Audio Coding 3
    Codec ID                         : A_AC3
    Duration                         : 2h 0mn
    Bit rate mode                    : Constant
    Bit rate                         : 640 Kbps
    Channel(s)                       : 6 channels
    Channel positions                : Front: L C R, Surround: L R, LFE
    Sampling rate                    : 48.0 KHz
    Stream size                      : 553 MiB (4%)
    Title                            : Russian / Dolby Digital Audio / 5.1 / 48 kHz / 640 kbps / Dub
    Language                         : Russian

    Audio #2
    ID                               : 3
    Format                           : DTS
    Format/Info                      : Digital Theater Systems
    Format profile                   : MA
    Codec ID                         : A_DTS
    Duration                         : 2h 0mn
    Bit rate mode                    : Variable
    Channel(s)                       : 6 channels
    Channel positions                : Front: L C R, Surround: L R, LFE
    Sampling rate                    : 48.0 KHz
    Resolution                       : 16 bits
    Title                            : Russian / DTS-HD Master Audio (Матвеев)
    Language                         : Russian

    Audio #3
    ID                               : 4
    Format                           : AC-3
    Format/Info                      : Audio Coding 3
    Codec ID                         : A_AC3
    Duration                         : 2h 0mn
    Bit rate mode                    : Constant
    Bit rate                         : 640 Kbps
    Channel(s)                       : 6 channels
    Channel positions                : Front: L C R, Surround: L R, LFE
    Sampling rate                    : 48.0 KHz
    Stream size                      : 553 MiB (4%)
    Title                            : English / Dolby Digital Audio / 5.1 / 48 kHz / 640 kbps


    Скриншоты
    [img]http://i91.fastpic.ru/big/2017/1002/e6/c42a338368bca13526cc6f10aada8ee6.png[/img][img]http://i91.fastpic.ru/big/2017/1002/68/f35f5d7a15a775304b180b9f28bf1068.png[/img][img]http://i91.fastpic.ru/big/2017/1002/2a/6ef8c8116a9e96a5dcf04c8c6eb1942a.png[/img][img]http://i91.fastpic.ru/big/2017/1002/6d/1cb97b7695af402faad0d25bb7eda36d.png[/img]
    Еще похожие »

    Как скачать?
    1. Качаем UTorrent версии 2.0 и выше отсюда
    2. После установки, жмем на ссылку Скачать торрент.
    3. Открываем его через utorrent.
    4. Ждем пока подключатся участники.
    5. Качаем.


    Комментарии о Константин: Повелитель тьмы / Constantine | BDRemux
    Добавлять комментарии могут только зарегистрированные пользователи

    Зарегистрироваться или Войти


    Ближайшее в кино
    • Безумие Георга III дата выхода 20 ноября 2018Безумие Георга III
      Дата выхода: 20 ноября 2018
    • 7226|Догвилль|22 ноября 2018|200|300Догвилль
      Дата выхода: 22 ноября 2018
    • 1009784|Апгрейд|22 ноября 2018|200|300Апгрейд
      Дата выхода: 22 ноября 2018
    • 988782|Ральф против интернета|22 ноября 2018|200|300Ральф против интернета
      Дата выхода: 22 ноября 2018
    • 965901|Вдовы|22 ноября 2018|200|300Вдовы
      Дата выхода: 22 ноября 2018
    • 1011685|Нация убийц|22 ноября 2018|200|300Нация убийц
      Дата выхода: 22 ноября 2018
    • 891414|Жена|22 ноября 2018|200|300Жена
      Дата выхода: 22 ноября 2018
    • 934207|Мотылёк|22 ноября 2018|200|300Мотылёк
      Дата выхода: 22 ноября 2018
    • 1044912|Вечерняя школа|22 ноября 2018|200|300Вечерняя школа
      Дата выхода: 22 ноября 2018
    • 1036188|Быть Астрид Линдгрен|22 ноября 2018|200|300Быть Астрид Линдгрен
      Дата выхода: 22 ноября 2018
    • 1048852|Помешанный на времени|22 ноября 2018|200|300Помешанный на времени
      Дата выхода: 22 ноября 2018
    • 1049775|Подбросы|22 ноября 2018|200|300Подбросы
      Дата выхода: 22 ноября 2018
    • 1108741|Я — миллиардер|22 ноября 2018|200|300Я — миллиардер
      Дата выхода: 22 ноября 2018
    • 1118041|Три лица|22 ноября 2018|200|300Три лица
      Дата выхода: 22 ноября 2018
    • 1209190|МУЛЬТ в кино. Выпуск 85. Мамин праздник|24 ноября 2018|200|300МУЛЬТ в кино. Выпуск 85. Мамин праздник
      Дата выхода: 24 ноября 2018
    Вверх