• Игры для PS4
  • Игры для PS3
  • Игры для XBOX360
  • Игры для PC
  • Игры для PS2
  • Игры для PSP
  • Для телефонов
  • Музыка
  • Книги / Журналы
  • Обои
  • Опрос
    Откуда Вы о нас узнали?
      0
    • От знакомых2,1,false,300,full
    • Из социальных сетей2,2,false,300,full
    • Из поисковых систем2,3,false,300,full
    • Другое2,4,false,300,full
    Статистика
    Всего онлайн -
    Гостей -
    Пользователей -
    Короли трекера
    
    Благодарности () Закрыть
    Информация о фильме
    Название: Могучие рейнджеры
    Оригинальное название: Power Rangers
    Год выхода: 2017
    Жанр: Фантастика, боевик, приключения
    Режиссер: Дин Израэлайт
    В ролях: Дакре Монтгомери, Наоми Скотт, АрДжей Сайлер, Луди Линь, Бекки Джи, Элизабет Бэнкс, Брайан Крэнстон, Билл Хэйдер, Мэтт Шайвли, Коуди Кирсли

    О фильме:
    Пять обычных старшеклассников узнают, что их маленький город Энджел Гроув и весь мир находятся на грани уничтожения инопланетной угрозой. Избранные судьбой наши герои быстро понимают, что они единственные, кто может спасти планету.



    Страна: США, Гонконг, Япония, Мексика, Канада, Новая Зеландия
    Студия: Lionsgate, Saban Brands, Saban Entertainment Inc., Temple Hill Entertainment, Walt Disney Studios Motion Pictures
    Продолжительность: 02:03:58
    Перевод: Дубляж [iTunes]

    Файл
    Кодек: H.265
    Качество: BDRip HEVC-10bit 720р от SuperMin
    Видео: 1280x534 (2.40:1), 1908 kbps, 23.976 fps
    Звук: Русский (AC3, 6 ch, 384 Кбит/с)
    Оригинал (AC3, 6 ch, 448 Кбит/с)
    Субтитры: русские (форс., полные), английские

    Лог&MI
    x265 [info]: frame I:   2451, Avg QP:17.41  kb/s: 9322.66
    x265 [info]: frame P:  42119, Avg QP:18.27  kb/s: 3971.10
    x265 [info]: frame B: 133770, Avg QP:22.03  kb/s: 1121.22
    x265 [info]: Weighted P-Frames: Y:10.6% UV:8.8%
    x265 [info]: consecutive B-frames: 10.8% 9.3% 7.6% 41.7% 11.2% 13.8% 3.0% 2.0% 0.6%
    encoded 178340 frames in 57681.82s (3.09 fps), 1907.00 kb/s, Avg QP:21.23

    General
    Unique ID                   : 232987036115937889461744414209428412979 (0xAF47ABC3715FE29D9A636E8B906FDA33)
    Complete name               : G:Могучие рейнджеры.2017.x265.BDRip-HEVC.10bit.DUB.mkv
    Format                      : Matroska
    Format version              : Version 4 / Version 2
    File size                   : 2.37 GiB
    Duration                    : 2 h 3 min
    Overall bit rate            : 2 742 kb/s
    Movie name                  : Могучие рейнджеры / Power Rangers (2017) - #LORDKILL#
    Encoded date                : UTC 2017-10-02 13:59:13
    Writing application         : mkvmerge v9.5.0 ("Quiet Fire") 64bit
    Writing library             : libebml v1.3.4 + libmatroska v1.4.5

    Video
    ID                          : 1
    Format                      : HEVC
    Format/Info                 : High Efficiency Video Coding
    Format profile              : Main 10@L5@High
    Codec ID                    : V_MPEGH/ISO/HEVC
    Duration                    : 2 h 3 min
    Bit rate                    : 1 908 kb/s
    Width                       : 1 280 pixels
    Height                      : 534 pixels
    Display aspect ratio        : 2.40:1
    Frame rate mode             : Constant
    Frame rate                  : 23.976 (24000/1001) FPS
    Original frame rate         : 23.976 (23976/1000) FPS
    Color space                 : YUV
    Chroma subsampling          : 4:2:0
    Bit depth                   : 10 bits
    Bits/(Pixel*Frame)          : 0.116
    Stream size                 : 1.65 GiB (70%)
    Writing library             : x265 2.0+48-dad8b32c68d44c92:[Windows][GCC 6.1.0][64 bit] 10bit: KG7x [x265.ru]
    Encoding settings           : wpp / ctu=64 / min-cu-size=8 / max-tu-size=32 / tu-intra-depth=1 / tu-inter-depth=1 / me=2 / subme=6 / merange=57 / rect / amp / max-merge=2 / temporal-mvp / no-early-skip / rskip / rdpenalty=0 / no-tskip / no-tskip-fast / strong-intra-smoothing / no-lossless / no-cu-lossless / no-constrained-intra / no-fast-intra / no-open-gop / no-temporal-layers / interlace=0 / keyint=240 / min-keyint=23 / scenecut=40 / rc-lookahead=20 / lookahead-slices=0 / bframes=8 / bframe-bias=0 / b-adapt=2 / ref=5 / limit-refs=3 / no-limit-modes / weightp / no-weightb / aq-mode=1 / qg-size=32 / aq-strength=2.00 / cbqpoffs=0 / crqpoffs=0 / rd=3 / psy-rd=2.00 / rdoq-level=0 / psy-rdoq=0.00 / log2-max-poc-lsb=8 / no-rd-refine / signhide / deblock=0:0 / sao / no-sao-non-deblock / b-pyramid / cutree / no-intra-refresh / rc=crf / crf=22.0 / qcomp=0.60 / qpmin=0 / qpmax=69 / qpstep=4 / vbv-maxrate=100000 / vbv-bufsize=100000 / crf-max=0.0 / ipratio=1.40 / pbratio=1.30
    Default                     : Yes
    Forced                      : No

    Audio #1
    ID                          : 2
    Format                      : AC-3
    Format/Info                 : Audio Coding 3
    Mode extension              : CM (complete main)
    Format settings, Endianness : Big
    Codec ID                    : A_AC3
    Duration                    : 2 h 3 min
    Bit rate mode               : Constant
    Bit rate                    : 384 kb/s
    Channel(s)                  : 6 channels
    Channel positions           : Front: L C R, Side: L R, LFE
    Sampling rate               : 48.0 kHz
    Frame rate                  : 31.250 FPS (1536 spf)
    Bit depth                   : 16 bits
    Compression mode            : Lossy
    Stream size                 : 340 MiB (14%)
    Title                       : Дубляж - iTunes
    Language                    : Russian
    Default                     : Yes
    Forced                      : No

    Audio #2
    ID                          : 3
    Format                      : AC-3
    Format/Info                 : Audio Coding 3
    Mode extension              : CM (complete main)
    Format settings, Endianness : Big
    Codec ID                    : A_AC3
    Duration                    : 2 h 3 min
    Bit rate mode               : Constant
    Bit rate                    : 448 kb/s
    Channel(s)                  : 6 channels
    Channel positions           : Front: L C R, Side: L R, LFE
    Sampling rate               : 48.0 kHz
    Frame rate                  : 31.250 FPS (1536 spf)
    Bit depth                   : 16 bits
    Compression mode            : Lossy
    Stream size                 : 397 MiB (16%)
    Title                       : Original
    Language                    : English
    Default                     : No
    Forced                      : No

    Text #1
    ID                          : 4
    Format                      : UTF-8
    Codec ID                    : S_TEXT/UTF8
    Codec ID/Info               : UTF-8 Plain Text
    Duration                    : 1 h 51 min
    Bit rate                    : 2 b/s
    Count of elements           : 42
    Stream size                 : 1.88 KiB (0%)
    Title                       : Forced
    Language                    : Russian
    Default                     : Yes
    Forced                      : No

    Text #2
    ID                          : 5
    Format                      : UTF-8
    Codec ID                    : S_TEXT/UTF8
    Codec ID/Info               : UTF-8 Plain Text
    Duration                    : 1 h 55 min
    Bit rate                    : 99 b/s
    Count of elements           : 1660
    Stream size                 : 83.8 KiB (0%)
    Language                    : Russian
    Default                     : No
    Forced                      : No

    Text #3
    ID                          : 6
    Format                      : UTF-8
    Codec ID                    : S_TEXT/UTF8
    Codec ID/Info               : UTF-8 Plain Text
    Duration                    : 1 h 52 min
    Bit rate                    : 56 b/s
    Count of elements           : 1623
    Stream size                 : 46.7 KiB (0%)
    Title                       : Full
    Language                    : English
    Default                     : No
    Forced                      : No

    Text #4
    ID                          : 7
    Format                      : UTF-8
    Codec ID                    : S_TEXT/UTF8
    Codec ID/Info               : UTF-8 Plain Text
    Duration                    : 1 h 55 min
    Bit rate                    : 67 b/s
    Count of elements           : 1889
    Stream size                 : 56.9 KiB (0%)
    Title                       : SDH
    Language                    : English
    Default                     : No
    Forced                      : No

    Text #5
    ID                          : 8
    Format                      : UTF-8
    Codec ID                    : S_TEXT/UTF8
    Codec ID/Info               : UTF-8 Plain Text
    Duration                    : 1 h 55 min
    Bit rate                    : 91 b/s
    Count of elements           : 1877
    Stream size                 : 77.8 KiB (0%)
    Title                       : SDH-Colored
    Language                    : English
    Default                     : No
    Forced                      : No

    Menu
    00:00:00.000                : en:(01)00:00:00:000
    00:11:43.536                : en:(02)00:11:43:536
    00:22:34.186                : en:(03)00:22:34:186
    00:30:52.308                : en:(04)00:30:52:308
    00:40:06.487                : en:(05)00:40:06:487
    00:49:44.564                : en:(06)00:49:44:564
    01:01:31.187                : en:(07)01:01:31:187
    01:13:15.015                : en:(08)01:13:15:015
    01:24:13.339                : en:(09)01:24:13:339
    01:34:11.687                : en:(10)01:34:11:687
    01:45:09.303                : en:(11)01:45:09:303
    01:53:45.318                : en:(12)01:53:45:318
    Свернуть


    Скриншоты
    [screen]http://i89.fastpic.ru/big/2017/1002/ca/27f671042eb6eae75751f8e03d8544ca.jpg[/screen][screen]http://i89.fastpic.ru/big/2017/1002/86/7b05f23bd9f4ca8b281700b3e0851986.jpg[/screen][screen]http://i91.fastpic.ru/big/2017/1002/74/eb491bfa4edc90674e14499dd5e80c74.jpg[/screen][screen]http://i91.fastpic.ru/big/2017/1002/23/7ad1841717e7c3e7ef93153f6b3c5923.jpg[/screen] Свернуть
    Похожие раздачи Искать похожие
    Инструкция по скачиванию
     1  Качаем uTorrent версии 2.0 и выше
     2  После установки, жмем выше под постером на ссылку Скачать [MediaGet] или Скачать .torrent
     3  Открываем скачанный файл через соответствующий клиент: MediaGet или uTorrent
     4  Ждем пока подключатся участники
     5  Качаем
    Комментарии о  Могучие рейнджеры / Power Rangers | BDRip-HEVC 720p 
    Ближайшее в кино
    Вверх