• Игры для PS4
  • Игры для PS3
  • Игры для XBOX360
  • Игры для PC
  • Игры для PS2
  • Игры для PSP
  • Для телефонов
  • Музыка
  • Книги / Журналы
  • Обои
  • Опрос
    Удобен ли сайт в использовании?
      0
    • Очень удобен, все понятно1,1,false,300,full
    • Удобен1,2,false,300,full
    • Средне1,3,false,300,full
    • Неудобен, трудно ориентироваться1,4,false,300,full
    • Совсем неудобен1,5,false,300,full
    Статистика
    Всего онлайн -
    Гостей -
    Пользователей -
    Короли трекера
    
    Благодарности () Закрыть
    Исполнитель/Группа: Юлия Михальчик
    Жанр:  POP
    Год выпуска: 2017
    Продолжительность: 00:42:46

    Описание:  Сольный концерт популярной певицы и композитора Юлии Мхальчик в Эжве.Профеессиональная съемка,звук с микшера.

    Формат: MKV
    Качество: CAMRip 720p
    Видео кодек: H.264
    Аудио кодек: AAC
    Видео: H.264, ~4 000 Kbps, 1280 x 720 (16:9), 30fps
    Аудио: AAC, 48000Hz, 2ch, 192 kbps
    Треклист
    1.Косы
    2.Птица
    3.Здравствуй и прощай
    4.Белая черемуха
    5.Одна свеча
    6.А ты не бойся
    7.А он мне нравится
    8.До свиданья,Питер!
    9.Лебедь белаяСвернуть


    MedaInfo
    Complete name               : D:Mihalchik_2017.mkv
    Format                      : Matroska
    Format version              : Version 4 / Version 2
    File size                   : 1.25 GiB
    Duration                    : 42 min 46 s
    Overall bit rate            : 4 194 kb/s
    Encoded date                : UTC 2017-10-02 13:58:50
    Writing application         : mkvmerge v8.3.0 ("Over the Horizon") 64bit
    Writing library             : libebml v1.3.1 + libmatroska v1.4.2

    Video
    ID                          : 1
    Format                      : AVC
    Format/Info                 : Advanced Video Codec
    Format profile              : Main@L4.1
    Format settings, CABAC      : Yes
    Format settings, ReFrames   : 4 frames
    Codec ID                    : V_MPEG4/ISO/AVC
    Duration                    : 42 min 46 s
    Bit rate                    : 4 002 kb/s
    Width                       : 1 280 pixels
    Height                      : 720 pixels
    Display aspect ratio        : 16:9
    Frame rate mode             : Constant
    Frame rate                  : 29.970 (30000/1001) FPS
    Standard                    : NTSC
    Color space                 : YUV
    Chroma subsampling          : 4:2:0
    Bit depth                   : 8 bits
    Scan type                   : Progressive
    Bits/(Pixel*Frame)          : 0.145
    Stream size                 : 1.20 GiB (95%)
    Language                    : English
    Default                     : Yes
    Forced                      : No
    Color range                 : Limited
    Color primaries             : BT.709
    Transfer characteristics    : BT.709
    Matrix coefficients         : BT.709

    Audio
    ID                          : 2
    Format                      : AAC
    Format/Info                 : Advanced Audio Codec
    Format profile              : LC
    Codec ID                    : A_AAC
    Duration                    : 42 min 46 s
    Bit rate                    : 192 kb/s
    Channel(s)                  : 2 channels
    Channel positions           : Front: L R
    Sampling rate               : 48.0 kHz
    Frame rate                  : 46.875 FPS (1024 spf)
    Compression mode            : Lossy
    Stream size                 : 58.0 MiB (5%)
    Language                    : English
    Default                     : Yes
    Forced                      : NoСвернуть


    Похожие раздачи Искать похожие
    Инструкция по скачиванию
     1  Качаем uTorrent версии 2.0 и выше
     2  После установки, жмем выше под постером на ссылку Скачать [MediaGet] или Скачать .torrent
     3  Открываем скачанный файл через соответствующий клиент: MediaGet или uTorrent
     4  Ждем пока подключатся участники
     5  Качаем
    Комментарии о  Юлия Михальчик - Концерт в Эжве 
    Ближайшее в кино
    Вверх