• Игры для PS4
  • Игры для PS3
  • Игры для XBOX360
  • Игры для PC
  • Игры для PS2
  • Игры для PSP
  • Для телефонов
  • Музыка
  • Книги / Журналы
  • Обои
  • Опрос
    Удобен ли сайт в использовании?
      0
    • Очень удобен, все понятно1,1,false,300,full
    • Удобен1,2,false,300,full
    • Средне1,3,false,300,full
    • Неудобен, трудно ориентироваться1,4,false,300,full
    • Совсем неудобен1,5,false,300,full
    Статистика
    Всего онлайн -
    Гостей -
    Пользователей -
    Короли трекера
    
    Благодарности () Закрыть
    Производство: США, Гонконг, Китай, Канада
    Жанр:  Фантастика, Боевик, Комедия, Приключения

    Режиссер: Дэйв Грин
    Продюсер: Эндрю Форм, Брэдли Фуллер, Скотт Медник
    Актеры: Меган Фокс, Уилл Арнетт, Лора Линни, Стивен Амелл, Ноэль Фишер, Джереми Ховард, Пит Пложек, Алан Ричсон, Тайлер Перри, Брайан Ти

    Описание:
    Долгое время черепашки-ниндзя скрывались от людей в лабиринтах городской канализации. На протяжении нескольких лет учитель Сплинтер обучал их боевым искусствам и прививал им чувство справедливости. В один прекрасный момент им пришлось подняться наверх, чтобы спасти Нью-Йорк от Шредера, предводителя Клана Футов, захватившего власть в Нью-Йорке. Вместе с отважным репортером Эйприл и ее оператором Верном, бесстрашные воины смогли одержать победу и очистить любимый город от преступности. Леонардо, Микеланджело, Рафаэль и Донателло нашли свое предназначение в этом мире и стали защитниками своего города. Они навели порядок в Нью-Йорке и с чистой совестью могли отправиться на покой, но однажды им вновь пришлось столкнуться с могущественным врагом, угрожающим их городу.



    Продолжительность: 01:52:07
    Качество видео: BDRip  720p
    Перевод: Дублированный (Лицензия Blu-ray CEE), авторский (одноголосый, закадровый)
    Субтитры: Русский, английский

    Видео: AVC, 1280x534 (2.35:1), 23.976 fps, 4 686 Kbps (0.286 bit/pixel)
    Аудио #1: AC-3, 48.0 KHz, 6 ch, 640 Kbps, CBR (Russian) - дублированный
    Аудио #2: AC-3, 48.0 KHz, 6 ch, 448 Kbps, CBR (Russian) - авторский А.Гаврилов
    Аудио #3: AC-3, 48.0 KHz, 6 ch, 448 Kbps, CBR (Russian) - авторский Ю.Живов
    Аудио #4: AC-3, 48.0 KHz, 6 ch, 448 Kbps, CBR (English) - оригинальная звуковая дорожка

    Mediainfo
    Формат                                   : Matroska
    Версия формата                           : Version 2
    Размер файла                             : 5,23 Гбайт
    Продолжительность                        : 1 ч. 52 м.
    Общий поток                              : 6672 Кбит/сек
    Дата кодирования                         : UTC 2017-10-01 21:52:24
    Программа кодирования                    : mkvmerge v5.3.0 ("I could have danced") built on Feb  9 2012 10:38:07
    Библиотека кодирования                   : libebml v1.2.3 + libmatroska v1.3.0
    Attachments                              : poster 1.png

    Видео
    Идентификатор                            : 1
    Формат                                   : AVC
    Формат/Информация                        : Advanced Video Codec
    Профиль формата                          : High@L4.1
    Параметр CABAC формата                   : Да
    Параметр ReFrames формата                : 10 кадров
    Идентификатор кодека                     : V_MPEG4/ISO/AVC
    Продолжительность                        : 1 ч. 52 м.
    Битрейт                                  : 4686 Кбит/сек
    Ширина                                   : 1280 пикселей
    Высота                                   : 534 пикселя
    Соотношение сторон                       : 2,40:1
    Режим частоты кадров                     : Постоянный
    Частота кадров                           : 23,976 (24000/1001) кадра/сек
    Цветовое пространство                    : YUV
    Субдискретизация насыщенности            : 4:2:0
    Битовая глубина                          : 8 бит
    Тип развёртки                            : Прогрессивная
    Бит/(Пиксели*Кадры)                      : 0.286
    Размер потока                            : 3,57 Гбайт (68%)
    Библиотека кодирования                   : x264 core 146 r2538 121396c
    Настройки программы                      : cabac=1 / ref=10 / deblock=1:-3:-3 / analyse=0x3:0x133 / me=umh / subme=11 / psy=1 / psy_rd=1.00:0.10 / mixed_ref=1 / me_range=32 / chroma_me=1 / trellis=2 / 8x8dct=1 / cqm=0 / deadzone=21,11 / fast_pskip=0 / chroma_qp_offset=-3 / threads=12 / lookahead_threads=2 / sliced_threads=0 / nr=0 / decimate=0 / interlaced=0 / bluray_compat=0 / constrained_intra=0 / bframes=8 / b_pyramid=2 / b_adapt=2 / b_bias=0 / direct=3 / weightb=1 / open_gop=0 / weightp=2 / keyint=240 / keyint_min=23 / scenecut=40 / intra_refresh=0 / rc_lookahead=40 / rc=2pass / mbtree=0 / bitrate=4686 / ratetol=1.0 / qcomp=0.60 / qpmin=0 / qpmax=69 / qpstep=4 / cplxblur=20.0 / qblur=0.5 / vbv_maxrate=50000 / vbv_bufsize=62500 / nal_hrd=none / filler=0 / ip_ratio=1.40 / pb_ratio=1.30 / aq=1:0.70
    Язык                                     : English
    Default                                  : Да
    Forced                                   : Нет

    Аудио #1
    Идентификатор                            : 2
    Формат                                   : AC-3
    Формат/Информация                        : Audio Coding 3
    Расширение режима                        : CM (complete main)
    Параметр Endianness формата              : Big
    Идентификатор кодека                     : A_AC3
    Продолжительность                        : 1 ч. 52 м.
    Вид битрейта                             : Постоянный
    Битрейт                                  : 640 Кбит/сек
    Каналы                                   : 6 каналов
    Расположение каналов                     : Front: L C R, Side: L R, LFE
    Частота                                  : 48,0 КГц
    Частота кадров                           : 31,250 кадров/сек (1536 spf)
    Битовая глубина                          : 16 бит
    Метод сжатия                             : С потерями
    Размер потока                            : 513 Мбайт (10%)
    Заголовок                                : DUB [License]
    Язык                                     : Russian
    Default                                  : Да
    Forced                                   : Нет

    Аудио #2
    Идентификатор                            : 3
    Формат                                   : AC-3
    Формат/Информация                        : Audio Coding 3
    Расширение режима                        : CM (complete main)
    Параметр Endianness формата              : Big
    Идентификатор кодека                     : A_AC3
    Продолжительность                        : 1 ч. 52 м.
    Вид битрейта                             : Постоянный
    Битрейт                                  : 448 Кбит/сек
    Каналы                                   : 6 каналов
    Расположение каналов                     : Front: L C R, Side: L R, LFE
    Частота                                  : 48,0 КГц
    Частота кадров                           : 31,250 кадров/сек (1536 spf)
    Битовая глубина                          : 16 бит
    Метод сжатия                             : С потерями
    Размер потока                            : 359 Мбайт (7%)
    Заголовок                                : Авторский А.Гаврилов
    Язык                                     : Russian
    Default                                  : Нет
    Forced                                   : Нет

    Аудио #3
    Идентификатор                            : 4
    Формат                                   : AC-3
    Формат/Информация                        : Audio Coding 3
    Расширение режима                        : CM (complete main)
    Параметр Endianness формата              : Big
    Идентификатор кодека                     : A_AC3
    Продолжительность                        : 1 ч. 52 м.
    Вид битрейта                             : Постоянный
    Битрейт                                  : 448 Кбит/сек
    Каналы                                   : 6 каналов
    Расположение каналов                     : Front: L C R, Side: L R, LFE
    Частота                                  : 48,0 КГц
    Частота кадров                           : 31,250 кадров/сек (1536 spf)
    Битовая глубина                          : 16 бит
    Метод сжатия                             : С потерями
    Размер потока                            : 359 Мбайт (7%)
    Заголовок                                : Авторский Ю.Живов
    Язык                                     : Russian
    Default                                  : Нет
    Forced                                   : Нет

    Аудио #4
    Идентификатор                            : 5
    Формат                                   : AC-3
    Формат/Информация                        : Audio Coding 3
    Расширение режима                        : CM (complete main)
    Параметр Endianness формата              : Big
    Идентификатор кодека                     : A_AC3
    Продолжительность                        : 1 ч. 52 м.
    Вид битрейта                             : Постоянный
    Битрейт                                  : 448 Кбит/сек
    Каналы                                   : 6 каналов
    Расположение каналов                     : Front: L C R, Side: L R, LFE
    Частота                                  : 48,0 КГц
    Частота кадров                           : 31,250 кадров/сек (1536 spf)
    Битовая глубина                          : 16 бит
    Метод сжатия                             : С потерями
    Размер потока                            : 359 Мбайт (7%)
    Язык                                     : English
    Default                                  : Нет
    Forced                                   : Нет

    Текст #1
    Идентификатор                            : 6
    Формат                                   : UTF-8
    Идентификатор кодека                     : S_TEXT/UTF8
    Идентификатор кодека/Информация          : UTF-8 Plain Text
    Заголовок                                : Forced
    Язык                                     : Russian
    Default                                  : Да
    Forced                                   : Нет

    Текст #2
    Идентификатор                            : 7
    Формат                                   : UTF-8
    Идентификатор кодека                     : S_TEXT/UTF8
    Идентификатор кодека/Информация          : UTF-8 Plain Text
    Заголовок                                : Full
    Язык                                     : Russian
    Default                                  : Нет
    Forced                                   : Нет

    Текст #3
    Идентификатор                            : 8
    Формат                                   : UTF-8
    Идентификатор кодека                     : S_TEXT/UTF8
    Идентификатор кодека/Информация          : UTF-8 Plain Text
    Заголовок                                : Full
    Язык                                     : English
    Default                                  : Нет
    Forced                                   : Нет

    Текст #4
    Идентификатор                            : 9
    Формат                                   : UTF-8
    Идентификатор кодека                     : S_TEXT/UTF8
    Идентификатор кодека/Информация          : UTF-8 Plain Text
    Заголовок                                : SDH
    Язык                                     : English
    Default                                  : Нет
    Forced                                   : Нет

    Меню
    00:00:00.000                             : en:00:00:00.000
    00:05:55.564                             : en:00:05:55.564
    00:12:18.571                             : en:00:12:18.571
    00:18:53.507                             : en:00:18:53.507
    00:26:38.096                             : en:00:26:38.096
    00:33:14.492                             : en:00:33:14.492
    00:38:56.459                             : en:00:38:56.459
    00:44:11.190                             : en:00:44:11.190
    00:49:40.311                             : en:00:49:40.311
    00:55:40.629                             : en:00:55:40.629
    01:02:01.259                             : en:01:02:01.259
    01:04:51.971                             : en:01:04:51.971
    01:14:32.760                             : en:01:14:32.760
    01:21:18.415                             : en:01:21:18.415
    01:28:10.160                             : en:01:28:10.160
    01:36:58.229                             : en:01:36:58.229
    01:41:52.023                             : en:01:41:52.023
    01:46:20.874                             : en:01:46:20.874
    Свернуть


    Скриншоты
    [screen]http://lostpix.com/img/2017-10/02/1u5frebr406edb8leo4uwvt8h.png[/screen][screen]http://lostpix.com/img/2017-10/02/flz8fpsakxroy9iy5n36keay8.png[/screen][screen]http://lostpix.com/img/2017-10/02/ulseizkupi151eoitdg3agu7q.png[/screen][screen]http://lostpix.com/img/2017-10/02/y7fvrew158ljfbd73ila3ohuh.png[/screen]Свернуть
    Похожие раздачи Искать похожие
    Инструкция по скачиванию
     1  Качаем uTorrent версии 2.0 и выше
     2  После установки, жмем выше под постером на ссылку Скачать [MediaGet] или Скачать .torrent
     3  Открываем скачанный файл через соответствующий клиент: MediaGet или uTorrent
     4  Ждем пока подключатся участники
     5  Качаем
    Комментарии о  Черепашки-ниндзя 2 / Teenage Mutant Ninja Turtles: Out of the Shadows | BDRip 720p 
    Ближайшее в кино
    Вверх