• Игры для PS4
  • Игры для PS3
  • Игры для XBOX360
  • Игры для PC
  • Игры для PS2
  • Игры для PSP
  • Для телефонов
  • Музыка
  • Книги / Журналы
  • Обои
  • Опрос
    Удобен ли сайт в использовании?
      0
    • Очень удобен, все понятно1,1,false,300,full
    • Удобен1,2,false,300,full
    • Средне1,3,false,300,full
    • Неудобен, трудно ориентироваться1,4,false,300,full
    • Совсем неудобен1,5,false,300,full
    Статистика
    Всего онлайн -
    Гостей -
    Пользователей -
    Короли трекера
    
    Благодарности () Закрыть
    Информация о фильме
    Название: Мумия
    Оригинальное название: The Mummy
    Год выхода: 1999
    Жанр: фэнтези, боевик, приключения
    Режиссер: Стивен Соммерс
    В ролях: Брендан Фрейзер, Рэйчел Вайс, Джон Ханна, Арнольд, Вослу, Кевин Дж. О’Коннор, Джонатан Хайд, Одед Фер, Эрик Авари, Стивен Данэм, Кори Джонсон

    О фильме:
    На бескрайних просторах египетской пустыни компания сорвиголов разных национальностей рыщет в поисках несметных сокровищ фараона, над которыми тяготеет жуткое древнее проклятие. Рядом с кладом покоится мумия коварного жреца, жестоко казненного за ужасное убийство могущественного правителя Египта. Золотоискатели потревожили многовековой покой гробницы, и мумия встает из могилы, чтобы погрузить мир в царство кошмара…



    Страна: США
    Студия: Universal Pictures
    Продолжительность: 02:04:53
    Перевод: Профессиональный (многоголосый закадровый)

    Файл
    Формат: MKV
    Качество: HD-DVD Remux 1080p
    Видео: VC-1 / 1920х1080 / 15.8 Mbps / 23,976 fps
    Звук:
    Russian DTS 5.1 (768 kbps) (многоголосый FDV)
    Russian AC3 2.0 (448 kbps) (многоголосый Blu-Ray CEE)
    English DTS 5.1 (1536 kbps) (оригинал)
    Субтитры: Русские, Английские

    MediaInfo
    General
    Complete name                    : D:FilmsThe Mummy (1999) HD-DVD Remux 1080p.mkv
    Format                           : Matroska
    File size                        : 16.8 GiB
    Duration                         : 2h 4mn
    Overall bit rate                 : 19.3 Mbps
    Movie name                       : The Mummy HD-DVD Remux 1080p
    Encoded date                     : UTC 2017-10-03 10:58:25
    Writing application              : mkvmerge v4.9.1 ("Ich will") сборка от Jul 11 2011 23:53:15
    Writing library                  : libebml v1.2.1 + libmatroska v1.1.1

    Video
    ID                               : 1
    Format                           : VC-1
    Format profile                   : AP@L3
    Codec ID                         : WVC1
    Codec ID/Hint                    : Microsoft
    Duration                         : 2h 4mn
    Bit rate                         : 16.2 Mbps
    Width                            : 1 920 pixels
    Height                           : 1 080 pixels
    Display aspect ratio             : 16:9
    Frame rate                       : 23.976 fps
    Resolution                       : 24 bits
    Colorimetry                      : 4:2:0
    Scan type                        : Progressive
    Bits/(Pixel*Frame)               : 0.326
    Stream size                      : 14.1 GiB (84%)
    Title                            : The Mummy (1999)

    Audio #1
    ID                               : 2
    Format                           : DTS
    Format/Info                      : Digital Theater Systems
    Codec ID                         : A_DTS
    Duration                         : 2h 4mn
    Bit rate mode                    : Constant
    Bit rate                         : 755 Kbps
    Channel(s)                       : 6 channels
    Channel positions                : Front: L C R, Surround: L R, LFE
    Sampling rate                    : 48.0 KHz
    Resolution                       : 24 bits
    Stream size                      : 674 MiB (4%)
    Title                            : DTS 5.1 (768 kbps) (многоголосый FDV)
    Language                         : Russian

    Audio #2
    ID                               : 3
    Format                           : AC-3
    Format/Info                      : Audio Coding 3
    Format profile                   : Dolby Digital
    Codec ID                         : A_AC3
    Duration                         : 2h 4mn
    Bit rate mode                    : Constant
    Bit rate                         : 448 Kbps
    Channel(s)                       : 2 channels
    Channel positions                : L R
    Sampling rate                    : 48.0 KHz
    Stream size                      : 400 MiB (2%)
    Title                            : AC3 2.0 (448 kbps) (многоголосый Blu-Ray CEE)
    Language                         : Russian

    Audio #3
    ID                               : 4
    Format                           : DTS
    Format/Info                      : Digital Theater Systems
    Codec ID                         : A_DTS
    Duration                         : 2h 4mn
    Bit rate mode                    : Constant
    Bit rate                         : 1 510 Kbps
    Channel(s)                       : 6 channels
    Channel positions                : Front: L C R, Surround: L R, LFE
    Sampling rate                    : 48.0 KHz
    Resolution                       : 24 bits
    Stream size                      : 1.32 GiB (8%)
    Title                            : DTS 1536 Kbps (Оригинал)

    Text #1
    ID                               : 5
    Format                           : UTF-8
    Codec ID                         : S_TEXT/UTF8
    Codec ID/Info                    : UTF-8 Plain Text
    Title                            : Русские
    Language                         : Russian

    Text #2
    ID                               : 6
    Format                           : UTF-8
    Codec ID                         : S_TEXT/UTF8
    Codec ID/Info                    : UTF-8 Plain Text
    Title                            : Английские
    Свернуть


    Скриншоты
    [screen]http://i89.fastpic.ru/big/2017/1003/c7/6c1cccaf4557a9cb3f3d9724f790d5c7.png[/screen][screen]http://i89.fastpic.ru/big/2017/1003/a4/cfa87f37be986f5b4cd9b1596776d3a4.png[/screen][screen]http://i89.fastpic.ru/big/2017/1003/df/7c6c5bf86d7d62cb684572ddf29db0df.png[/screen][screen]http://i89.fastpic.ru/big/2017/1003/c0/1473141266b9db891c3f7e0f33d828c0.png[/screen]Свернуть
    Похожие раздачи Искать похожие
    Инструкция по скачиванию
     1  Качаем uTorrent версии 2.0 и выше
     2  После установки, жмем выше под постером на ссылку Скачать [MediaGet] или Скачать .torrent
     3  Открываем скачанный файл через соответствующий клиент: MediaGet или uTorrent
     4  Ждем пока подключатся участники
     5  Качаем
    Комментарии о  Мумия / The Mummy | DVD Remux 1080p 
    Ближайшее в кино
    Вверх