• Игры для PS4
  • Игры для PS3
  • Игры для XBOX360
  • Игры для PC
  • Игры для PS2
  • Игры для PSP
  • Для телефонов
  • Музыка
  • Книги / Журналы
  • Обои
  • Опрос
    Удобен ли сайт в использовании?
      0
    • Очень удобен, все понятно1,1,false,300,full
    • Удобен1,2,false,300,full
    • Средне1,3,false,300,full
    • Неудобен, трудно ориентироваться1,4,false,300,full
    • Совсем неудобен1,5,false,300,full
    Статистика
    Всего онлайн -
    Гостей -
    Пользователей -
    Короли трекера
    
    Благодарности () Закрыть
    Информация о фильме
    Название: Планета обезьян: Война
    Оригинальное название: War for the Planet of the Apes
    Год выхода: 2017
    Жанр: фантастика, боевик, триллер

    Режиссер: Мэтт Ривз

    В ролях: Энди Серкис, Вуди Харрельсон, Стив Зан, Карин Коновал, Амайя Миллер, Терри Нотари, Тай Олссон, Майкл Адамуэйт, Тоби Кеббелл, Гэбриел Чаварриа

    О фильме:
    Армию генетически модифицированных обезьян ожидает новый вызов: они вынуждены вступить в смертельную схватку с армией людей под руководством безжалостного полковника. После невообразимых потерь среди своих воинов вождь обезьян Цезарь начинает личную борьбу с темными инстинктами и собирается отомстить за весь свой вид. В конце концов он и полковник должны будут сойтись в эпической битве, которая решит, кто теперь будет править на Земле — люди или обезьяны.



    Страна: США, Канада, Новая Зеландия
    Продолжительность: 02:18:15
    Перевод: Любительское одноголосое (BadBajo)

    Файл
    Кодек: x.264
    Качество: WEBRip-AVC
    Видео: AVC, 1024x576 (16:9), 30.000 fps, 1 917 Kbps (0.108 bit/pixel)
    Звук 1:   AC-3, 48.0 KHz, 2 ch, 192 Kbps, CBR | RUS
    Звук 2:   AC-3, 48.0 KHz, 2 ch, 192 Kbps, CBR | ENG
    Субтитры: Корейские (вшитые), английские

    [img]http://i89.fastpic.ru/big/2017/1002/52/43e20ec329c9e837c7d38acdbd5ff352.jpg[/img]

    MI
    Общее
    Уникальный идентификатор                 : 224141492197814781785504833482339147792 (0xA8A014C6EC921AC2A1BEC4168F506010)
    Полное имя                               : War.for.the.Planet.of.the.Apes.2017.WEBRip-AVC.mkv
    Формат                                   : Matroska
    Версия формата                           : Version 4 / Version 2
    Размер файла                             : 2,23 Гбайт
    Продолжительность                        : 2 ч. 18 м.
    Общий поток                              : 2303 Кбит/сек
    Дата кодирования                         : UTC 2017-10-03 12:39:22
    Программа кодирования                    : mkvmerge v8.3.0 ("Over the Horizon") 64bit
    Библиотека кодирования                   : libebml v1.3.1 + libmatroska v1.4.2

    Видео
    Идентификатор                            : 1
    Формат                                   : AVC
    Формат/Информация                        : Advanced Video Codec
    Профиль формата                          : High@L4.1
    Параметр CABAC формата                   : Да
    Параметр ReFrames формата                : 10 кадров
    Идентификатор кодека                     : V_MPEG4/ISO/AVC
    Продолжительность                        : 2 ч. 18 м.
    Битрейт                                  : 1917 Кбит/сек
    Ширина                                   : 1024 пикселя
    Высота                                   : 576 пикселей
    Соотношение сторон                       : 16:9
    Режим частоты кадров                     : Постоянный
    Частота кадров                           : 30,000 кадров/сек
    Цветовое пространство                    : YUV
    Субдискретизация насыщенности            : 4:2:0
    Битовая глубина                          : 8 бит
    Тип развёртки                            : Прогрессивная
    Бит/(Пиксели*Кадры)                      : 0.108
    Размер потока                            : 1,86 Гбайт (83%)
    Библиотека кодирования                   : x264 core 152 r2851 ba24899
    Настройки программы                      : cabac=1 / ref=10 / deblock=1:-2:-2 / analyse=0x3:0x133 / me=umh / subme=10 / psy=1 / psy_rd=1.00:0.00 / mixed_ref=1 / me_range=24 / chroma_me=1 / trellis=2 / 8x8dct=1 / cqm=0 / deadzone=21,11 / fast_pskip=0 / chroma_qp_offset=-2 / threads=12 / lookahead_threads=2 / sliced_threads=0 / nr=0 / decimate=1 / interlaced=0 / bluray_compat=0 / constrained_intra=0 / bframes=8 / b_pyramid=2 / b_adapt=2 / b_bias=0 / direct=3 / weightb=1 / open_gop=0 / weightp=2 / keyint=250 / keyint_min=23 / scenecut=40 / intra_refresh=0 / rc_lookahead=40 / rc=2pass / mbtree=1 / bitrate=1917 / ratetol=1.0 / qcomp=0.60 / qpmin=0 / qpmax=69 / qpstep=4 / cplxblur=20.0 / qblur=0.5 / vbv_maxrate=50000 / vbv_bufsize=62500 / nal_hrd=none / filler=0 / ip_ratio=1.40 / aq=1:0.90
    Язык                                     : English
    Default                                  : Да
    Forced                                   : Нет

    Аудио #1
    Идентификатор                            : 2
    Формат                                   : AC-3
    Формат/Информация                        : Audio Coding 3
    Параметр Endianness формата              : Big
    Идентификатор кодека                     : A_AC3
    Продолжительность                        : 2 ч. 18 м.
    Вид битрейта                             : Постоянный
    Битрейт                                  : 192 Кбит/сек
    Каналы                                   : 2 канала
    Расположение каналов                     : Front: L R
    Частота                                  : 48,0 КГц
    Частота кадров                           : 31,250 кадров/сек (1536 spf)
    Битовая глубина                          : 16 бит
    Метод сжатия                             : С потерями
    Размер потока                            : 191 Мбайт (8%)
    Заголовок                                : BadBajo
    Язык                                     : Russian
    Default                                  : Да
    Forced                                   : Нет

    Аудио #2
    Идентификатор                            : 3
    Формат                                   : AC-3
    Формат/Информация                        : Audio Coding 3
    Параметр Endianness формата              : Big
    Идентификатор кодека                     : A_AC3
    Продолжительность                        : 2 ч. 18 м.
    Вид битрейта                             : Постоянный
    Битрейт                                  : 192 Кбит/сек
    Каналы                                   : 2 канала
    Расположение каналов                     : Front: L R
    Частота                                  : 48,0 КГц
    Частота кадров                           : 31,250 кадров/сек (1536 spf)
    Битовая глубина                          : 16 бит
    Метод сжатия                             : С потерями
    Размер потока                            : 191 Мбайт (8%)
    Язык                                     : English
    Default                                  : Нет
    Forced                                   : Нет

    Текст
    Идентификатор                            : 4
    Формат                                   : UTF-8
    Идентификатор кодека                     : S_TEXT/UTF8
    Идентификатор кодека/Информация          : UTF-8 Plain Text
    Продолжительность                        : 2 ч. 10 м.
    Битрейт                                  : 16 бит/сек
    ElementCount                             : 628
    Размер потока                            : 16,2 Кбайт (0%)
    Язык                                     : English
    Default                                  : Да
    Forced                                   : НетСвернуть


    Скриншоты
    [screen]http://i2.imageban.ru/out/2017/10/03/2f2a6c7b74371c36e41c7ccc7212eba9.png[/screen][screen]http://i4.imageban.ru/out/2017/10/03/355f60513b1309165e6849f0866102ce.png[/screen][screen]http://i6.imageban.ru/out/2017/10/03/b4bf1d749bf1da9a861d4c7920a1b326.png[/screen][screen]http://i6.imageban.ru/out/2017/10/03/57aaa738bb1ff6055a88f5d2817451ea.png[/screen][screen]http://i6.imageban.ru/out/2017/10/03/ce7168963dee9625bfc78ab8cb697b0d.png[/screen]Свернуть
    Инструкция по скачиванию
     1  Качаем uTorrent версии 2.0 и выше
     2  После установки, жмем выше под постером на ссылку Скачать [MediaGet] или Скачать .torrent
     3  Открываем скачанный файл через соответствующий клиент: MediaGet или uTorrent
     4  Ждем пока подключатся участники
     5  Качаем
    Комментарии о  Планета обезьян: Война / War for the Planet of the Apes | WEBRip-AVC 
    Ближайшее в кино
    Вверх