• Игры для PS4
  • Игры для PS3
  • Игры для XBOX360
  • Игры для PC
  • Игры для PS2
  • Игры для PSP
  • Для телефонов
  • Музыка
  • Книги / Журналы
  • Обои
  • Опрос
    Откуда Вы о нас узнали?
      0
    • От знакомых2,1,false,300,full
    • Из социальных сетей2,2,false,300,full
    • Из поисковых систем2,3,false,300,full
    • Другое2,4,false,300,full
    Статистика
    Всего онлайн -
    Гостей -
    Пользователей -
    Короли трекера
    
    Благодарности () Закрыть
    Информация о фильме
    Название: Мумия возвращается
    Оригинальное название: The Mummy Returns
    Год выхода: 2001
    Жанр: фэнтези, боевик, приключения
    Режиссер: Стивен Соммерс
    В ролях: Брендан Фрейзер, Рэйчел Вайс, Джон Ханна, Арнольд Вослу, Одед Фер, Патрисия Веласкес, Фредди Боат, Алан Армстронг, Дуэйн Джонсон, Адевале Акинойе-Агбаже

    О фильме:
    Прошло десять лет… Наш отважный герой, искатель приключений Рик О`Конелл, теперь богат, счастливо женат на прекрасной Эвелин и воспитывает своего восьмилетнего сына Алекса. Но злой рок не дает очаровательной семье О`Конеллов насладиться спокойной жизнью. Зловещий жрец Имхотеп снова восстал из мертвых! Теперь у Рика, Эвелин и малютки Алекса есть всего семь дней, чтобы спасти мир…



    Страна: США
    Студия: Universal Pictures
    Продолжительность: 02:09:38
    Перевод: Профессиональный (дублированный), профессиональный (многоголосый закадровый)

    Файл
    Формат: MKV
    Качество: HD-DVD Remux 1080p
    Видео: VC-1 / 1920х1080 / 19.9 Mbps / 23,976 fps
    Звук:
    Russian DTS 5.1 (1536 kbps) (дубляж)
    Russian AC3 5.1 (448 kbps) (многоголосый Blu-Ray CEE)
    English DTS 5.1 (1536 kbps) (оригинал)
    Субтитры: Русские, Английские

    MediaInfo
    General
    Complete name                    : D:FilmsThe Mummy Returns (2001) HD-DVD Remux 1080p.mkv
    Format                           : Matroska
    File size                        : 22.1 GiB
    Duration                         : 2h 9mn
    Overall bit rate                 : 24.4 Mbps
    Movie name                       : The Mummy Returns (2001) HD-DVD Remux 1080p
    Encoded date                     : UTC 2017-10-03 12:29:08
    Writing application              : mkvmerge v4.9.1 ("Ich will") сборка от Jul 11 2011 23:53:15
    Writing library                  : libebml v1.2.1 + libmatroska v1.1.1

    Video
    ID                               : 1
    Format                           : VC-1
    Format profile                   : AP@L3
    Codec ID                         : WVC1
    Codec ID/Hint                    : Microsoft
    Duration                         : 2h 9mn
    Bit rate                         : 20.4 Mbps
    Width                            : 1 920 pixels
    Height                           : 1 080 pixels
    Display aspect ratio             : 16:9
    Frame rate                       : 23.976 fps
    Resolution                       : 24 bits
    Colorimetry                      : 4:2:0
    Scan type                        : Progressive
    Bits/(Pixel*Frame)               : 0.411
    Stream size                      : 18.5 GiB (84%)
    Title                            : The Mummy Returns

    Audio #1
    ID                               : 2
    Format                           : DTS
    Format/Info                      : Digital Theater Systems
    Codec ID                         : A_DTS
    Duration                         : 2h 9mn
    Bit rate mode                    : Constant
    Bit rate                         : 1 510 Kbps
    Channel(s)                       : 6 channels
    Channel positions                : Front: L C R, Surround: L R, LFE
    Sampling rate                    : 48.0 KHz
    Resolution                       : 24 bits
    Stream size                      : 1.37 GiB (6%)
    Title                            : DTS 5.1 (1536 kbps) (дубляж)
    Language                         : Russian

    Audio #2
    ID                               : 3
    Format                           : AC-3
    Format/Info                      : Audio Coding 3
    Codec ID                         : A_AC3
    Duration                         : 2h 9mn
    Bit rate mode                    : Constant
    Bit rate                         : 448 Kbps
    Channel(s)                       : 6 channels
    Channel positions                : Front: L C R, Surround: L R, LFE
    Sampling rate                    : 48.0 KHz
    Stream size                      : 415 MiB (2%)
    Title                            : AC3 5.1 (448 kbps) (многоголосый Blu-Ray CEE)
    Language                         : Russian

    Audio #3
    ID                               : 4
    Format                           : DTS
    Format/Info                      : Digital Theater Systems
    Codec ID                         : A_DTS
    Duration                         : 2h 9mn
    Bit rate mode                    : Constant
    Bit rate                         : 1 510 Kbps
    Channel(s)                       : 6 channels
    Channel positions                : Front: L C R, Surround: L R, LFE
    Sampling rate                    : 48.0 KHz
    Resolution                       : 24 bits
    Stream size                      : 1.37 GiB (6%)
    Title                            : DTS 1536 Kbps (Оригинал)

    Text #1
    ID                               : 5
    Format                           : UTF-8
    Codec ID                         : S_TEXT/UTF8
    Codec ID/Info                    : UTF-8 Plain Text
    Title                            : Русские
    Language                         : Russian

    Text #2
    ID                               : 6
    Format                           : UTF-8
    Codec ID                         : S_TEXT/UTF8
    Codec ID/Info                    : UTF-8 Plain Text
    Title                            : Английские
    Свернуть


    Скриншоты
    [screen]http://i91.fastpic.ru/big/2017/1003/f4/0ac4d1fc43aa3917d2b8cbabb902caf4.png[/screen][screen]http://i91.fastpic.ru/big/2017/1003/47/120b3bdfb104f9c990e9a16fcc1b8647.png[/screen][screen]http://i91.fastpic.ru/big/2017/1003/ff/debc76ea3a4d02588728b67b4311b9ff.png[/screen][screen]http://i91.fastpic.ru/big/2017/1003/b8/a05cfcc10e125144e45ae00fff25f7b8.png[/screen]Свернуть
    Похожие раздачи Искать похожие
    Инструкция по скачиванию
     1  Качаем uTorrent версии 2.0 и выше
     2  После установки, жмем выше под постером на ссылку Скачать [MediaGet] или Скачать .torrent
     3  Открываем скачанный файл через соответствующий клиент: MediaGet или uTorrent
     4  Ждем пока подключатся участники
     5  Качаем
    Комментарии о  Мумия возвращается / The Mummy Returns | DVD Remux 1080p 
    Ближайшее в кино
    Вверх