• Игры для PS4
  • Игры для PS3
  • Игры для XBOX360
  • Игры для PC
  • Игры для PS2
  • Игры для PSP
  • Для телефонов
  • Музыка
  • Книги / Журналы
  • Обои
  • Опрос
    Удобен ли сайт в использовании?
      0
    • Очень удобен, все понятно1,1,false,300,full
    • Удобен1,2,false,300,full
    • Средне1,3,false,300,full
    • Неудобен, трудно ориентироваться1,4,false,300,full
    • Совсем неудобен1,5,false,300,full
    Статистика
    Всего онлайн -
    Гостей -
    Пользователей -
    Короли трекера
    
    Благодарности () Закрыть
    Быстрее загружает сайты Экономит интернет—трафик Меняет оформление страницы ВК Блокирует всю рекламу на сайтах Загружает торренты как µTorrent клиент Объеденяет все твои чаты из соц. сетей в один Проигрывает твою музыку не заходя во ВКонтакте
    Новый интернет-браузер
    Orbitum
    Скачать
    и многое другое... Подробности на сайте производителя
    Информация о фильме
    Название: Медвежатники
    Оригинальное название: Breaking In
    Год выхода: 1989
    Жанр: Kомедия, приключения
    Режиссер: Билл Форсайт
    В ролях: Берт Рейнолдс, Кэйси Семашко, Шила Келли, Лоррейн Туссен, Альберт Сэлми, Гарри Кэри мл., Мори Чайкин, Стивен Тоболовски, Ричард Ки Джонс

    О фильме: Легкая комедия об опытном, стареющем влзомщике сейфов Эрни. Он берет в ученики юного протеже, которому еще многому надо учиться не только по «специальности», но и по жизни. Такой запоминающейся парочки воров мы, наверное, не видели со времен Буча Кэссиди и Сандэнса Кида. Остроумный и изобретательный сценарий Джона Сэйлза

    [img]http://i89.fastpic.ru/big/2017/0502/69/67d521d70873d2399dac9e7d05d0b369.png[/img]

    Страна: США
    Продолжительность: 01:34:18
    Перевод: Профессиональный (многоголосый, закадровый)
    Субтитры: Нет

    Файл
    Кодек: XviD
    Качество: DVDRip
    Видео: 672x416 (1.62:1), 23.976 fps, XviD build 73 ~896 kbps avg, 0.13 bit/pixel
    Звук: 48 kHz, MPEG Layer 3, 2 ch, ~128.00 kbps avg

    MediaInfo
    General
    Complete name               : Breaking.In.1989.DVDRip.ot.Portablius.avi
    Format                      : AVI
    Format/Info                 : Audio Video Interleave
    File size                   : 698 MiB
    Duration                    : 1 h 34 min
    Overall bit rate            : 1 034 kb/s
    Writing application         : VirtualDubMod 1.5.10.3 | www.virtualdub-fr.org || (build 2550/release)
    Writing library             : VirtualDubMod build 2550/release

    Video
    ID                          : 0
    Format                      : MPEG-4 Visual
    Format profile              : Advanced Simple@L5
    Format settings, BVOP       : 1
    Format settings, QPel       : No
    Format settings, GMC        : No warppoints
    Format settings, Matrix     : Custom
    Codec ID                    : XVID
    Codec ID/Hint               : XviD
    Duration                    : 1 h 34 min
    Bit rate                    : 897 kb/s
    Width                       : 672 pixels
    Height                      : 416 pixels
    Display aspect ratio        : 16:10
    Frame rate                  : 23.976 (24000/1001) FPS
    Color space                 : YUV
    Chroma subsampling          : 4:2:0
    Bit depth                   : 8 bits
    Scan type                   : Progressive
    Compression mode            : Lossy
    Bits/(Pixel*Frame)          : 0.134
    Stream size                 : 606 MiB (87%)
    Writing library             : XviD 73

    Audio
    ID                          : 1
    Format                      : MPEG Audio
    Format version              : Version 1
    Format profile              : Layer 3
    Codec ID                    : 55
    Codec ID/Hint               : MP3
    Duration                    : 1 h 34 min
    Bit rate mode               : Constant
    Bit rate                    : 128 kb/s
    Channel(s)                  : 2 channels
    Sampling rate               : 48.0 kHz
    Compression mode            : Lossy
    Stream size                 : 86.4 MiB (12%)
    Alignment                   : Aligned on interleaves
    Interleave, duration        : 42  ms (1.00 video frame)
    Interleave, preload duratio : 504  ms
    Writing library             : LAME3.99r
    Encoding settings           : -m s -V 4 -q 2 -lowpass 17 -b 128

    Свернуть


    Скриншоты
    [screen]http://i91.fastpic.ru/big/2017/1003/ef/00e9c17c6e5904c47a34add1489e4eef.png[/screen][screen]http://i91.fastpic.ru/big/2017/1003/86/1eed5130938487db908e49b376bc1e86.png[/screen][screen]http://i91.fastpic.ru/big/2017/1003/d8/4f725e116f69470a8b6005ca82e743d8.png[/screen][screen]http://i89.fastpic.ru/big/2017/1003/02/24a7abc225977e96a71b06bbcf3ceb02.png[/screen]Свернуть
    Похожие раздачи Искать похожие
    Инструкция по скачиванию
     1  Качаем uTorrent версии 2.0 и выше
     2  После установки, жмем выше под постером на ссылку Скачать [MediaGet] или Скачать .torrent
     3  Открываем скачанный файл через соответствующий клиент: MediaGet или uTorrent
     4  Ждем пока подключатся участники
     5  Качаем
    Комментарии о  Взломщики / Медвежатники / Breaking In | DVDRip 
    Ближайшее в кино
    Вверх