• Игры для PS4
  • Игры для PS3
  • Игры для XBOX360
  • Игры для PC
  • Игры для PS2
  • Игры для PSP
  • Для телефонов
  • Музыка
  • Книги/Журналы
  • Обои
  •  
    Опрос
    Откуда Вы о нас узнали?
      0
    • От знакомых2,1,false,300,full
    • Из социальных сетей2,2,false,300,full
    • Из поисковых систем2,3,false,300,full
    • Другое2,4,false,300,full
    Статистика
    Загрузка...
    Улов / Gyoei no mure | BDRip 720p
    Статус  Проверено
    В закладки
    Модератор: Max

    Улов / Gyoei no mure | BDRip 720p [Фильмы 1983] скачать торрентом/torrent бесплатно

    Год выхода
    Категории
    Язык
    Закачал
    Аноним | 03 октября 2017 в 19ч 21м 22с
    Раздел
    Отзывов
    0
    Раздают: 0 Качают: 0 Скачали: 0 Размер: 14.27 GB
    Инфо о раздаче | Благодарности |
    0/5
    0
    0 5 0
    Поддержи нас — расскажи друзьям!
    Orbitum
    Новый интернет-браузер Быстрее загружает сайты Экономит интернет—трафик Меняет оформление страницы ВК Блокирует всю рекламу на сайтах Загружает торренты как

    µTorrent

    клиент
    Объеденяет все твои чаты из соц. сетей в один Проигрывает твою музыку не заходя во ВКонтакте
    Скачать и многое другое... Подробности на сайте производителя
    Информация о фильме
    Название: Улов
    Оригинальное название: Gyoei no mure
    Год выхода: 1983
    Жанр: драма
    Режиссер: Синдзи Сомай
    В ролях: Кэн Огата, Масако Нацумэ, Коити Сато, Юкиё Тоакэ, Сабуро Исикура, Эйити Кудо, Леонард Кума, Сигэру Ядзаки

    Описание: У Токико Кохама было трудное детство, её отец Фусадзиро всю жизнь отдал лову тунца, её мать Ая бросила семью и убежала к другому мужчине. Токико ищет себе в мужья сильного человека, который любит море, как её отец. Но сможет ли отец принять её избранника, и сможет ли любимый стать настоящим рыбаком?



    Страна: Япония
    Продолжительность: 02:20:25
    Перевод: Любительский (одноголосый закадровый) Олег Воротилин
    Субтитры: русские дед_сто_лет, английские
    Оригинальная аудиодорожка: японский

    Файл
    Качество: BDRip 720p
    Видео: AVC / 1280x690 / 1.85:1 / 23.976 fps / 12000Kbps / High@L4.1
    Аудио 1: Rus: AC3 / 48.0 KHz / 2.0 / 192 kbps / VO / О. Воротилин
    Аудио 2: Rus: FLAC / 96.0 KHz / 2.0 / 1205 kbps / 24 bit / VO / О. Воротилин
    Аудио 3: Jap: FLAC / 96.0 KHz / 2.0 / 1154 kbps / 24 bit

    Скриншоты
    [img]http://img12.lostpic.net/2017/10/03/8970def06d2afee7b1b671da83b2dcac.png[/img][img]http://img12.lostpic.net/2017/10/03/6ab7f2d69192e4aec47aaf57e4eed85a.png[/img][img]http://img12.lostpic.net/2017/10/03/382eb38fe5cc949be29c3774b0323f84.png[/img]


    MediaInfo
    Общее
    Уникальный идентификатор : 205303787013606631347523702803220545994 (0x9A7412344D3B762CB5F7AE8C08C241CA)
    Полное имя : The.Catch.1983.BDRip.720p.mkv
    Формат : Matroska
    Версия формата : Version 4 / Version 2
    Размер файла : 14,3 Гбайт
    Продолжительность : 2 ч. 20 м.
    Режим общего битрейта : Переменный
    Общий поток : 14,6 Мбит/сек
    Название фильма : The.Catch.1983.BDRip.720p-porvaliparus
    Дата кодирования : UTC 2017-08-15 22:40:46
    Программа кодирования : mkvmerge v13.0.0 ("The Juggler") 64bit
    Библиотека кодирования : libebml v1.3.4 + libmatroska v1.4.5

    Видео
    Идентификатор : 1
    Формат : AVC
    Формат/Информация : Advanced Video Codec
    Профиль формата : High@L4.1
    Параметр CABAC формата : Да
    Параметр ReFrames формата : 9 кадров
    Идентификатор кодека : V_MPEG4/ISO/AVC
    Продолжительность : 2 ч. 20 м.
    Битрейт : 12,0 Мбит/сек
    Ширина : 1280 пикселей
    Высота : 690 пикселей
    Соотношение сторон : 1,85:1
    Режим частоты кадров : Постоянный
    Частота кадров : 23,976 (24000/1001) кадра/сек
    Цветовое пространство : YUV
    Субдискретизация насыщенности : 4:2:0
    Битовая глубина : 8 бит
    Тип развёртки : Прогрессивная
    Бит/(Пиксели*Кадры) : 0.567
    Размер потока : 11,8 Гбайт (82%)
    Заголовок : The.Catch.1983.BDRip.720p
    Библиотека кодирования : x264 core 152 r2851 ba24899
    Настройки программы : cabac=1 / ref=9 / deblock=1:-3:-3 / analyse=0x3:0x133 / me=umh / subme=11 / psy=1 / psy_rd=1.00:0.10 / mixed_ref=1 / me_range=32 / chroma_me=1 / trellis=2 / 8x8dct=1 / cqm=0 / deadzone=21,11 / fast_pskip=0 / chroma_qp_offset=-3 / threads=12 / lookahead_threads=2 / sliced_threads=0 / nr=0 / decimate=1 / interlaced=0 / bluray_compat=0 / constrained_intra=0 / bframes=8 / b_pyramid=2 / b_adapt=2 / b_bias=0 / direct=3 / weightb=1 / open_gop=0 / weightp=2 / keyint=250 / keyint_min=23 / scenecut=40 / intra_refresh=0 / rc_lookahead=40 / rc=2pass / mbtree=0 / bitrate=12000 / ratetol=1.0 / qcomp=0.60 / qpmin=0 / qpmax=69 / qpstep=4 / cplxblur=20.0 / qblur=0.5 / vbv_maxrate=50000 / vbv_bufsize=62500 / nal_hrd=none / filler=0 / ip_ratio=1.40 / pb_ratio=1.30 / aq=1:0.80
    Default : Да
    Forced : Нет

    Аудио #1
    Идентификатор : 2
    Формат : AC-3
    Формат/Информация : Audio Coding 3
    Параметр Endianness формата : Big
    Идентификатор кодека : A_AC3
    Продолжительность : 2 ч. 20 м.
    Вид битрейта : Постоянный
    Битрейт : 192 Кбит/сек
    Каналы : 2 канала
    Расположение каналов : Front: L R
    Частота : 48,0 КГц
    Частота кадров : 31,250 кадров/сек (1536 spf)
    Битовая глубина : 16 бит
    Метод сжатия : С потерями
    Размер потока : 193 Мбайт (1%)
    Заголовок : VO [О. Воротилин]
    Язык : Russian
    Default : Да
    Forced : Нет

    Аудио #2
    Идентификатор : 3
    Формат : FLAC
    Формат/Информация : Free Lossless Audio Codec
    Идентификатор кодека : A_FLAC
    Продолжительность : 2 ч. 20 м.
    Вид битрейта : Переменный
    Битрейт : 1205 Кбит/сек
    Каналы : 2 канала
    Расположение каналов : Front: L R
    Частота : 96,0 КГц
    Частота кадров : 23,438 кадра/сек (4096 spf)
    Битовая глубина : 24 бит
    Размер потока : 1,18 Гбайт (8%)
    Заголовок : VO [О. Воротилин]
    Библиотека кодирования : libFLAC 20080709 (UTC 2008-07-09)
    Язык : Russian
    Default : Нет
    Forced : Нет

    Аудио #3
    Идентификатор : 4
    Формат : FLAC
    Формат/Информация : Free Lossless Audio Codec
    Идентификатор кодека : A_FLAC
    Продолжительность : 2 ч. 20 м.
    Вид битрейта : Переменный
    Битрейт : 1154 Кбит/сек
    Каналы : 2 канала
    Расположение каналов : Front: L R
    Частота : 96,0 КГц
    Частота кадров : 23,438 кадра/сек (4096 spf)
    Битовая глубина : 24 бит
    Размер потока : 1,13 Гбайт (8%)
    Библиотека кодирования : libFLAC 1.2.1 (UTC 2007-09-17)
    Язык : Japanese
    Default : Нет
    Forced : Нет

    Текст #1
    Идентификатор : 5
    Формат : UTF-8
    Идентификатор кодека : S_TEXT/UTF8
    Идентификатор кодека/Информация : UTF-8 Plain Text
    Продолжительность : 2 ч. 19 м.
    Битрейт : 31 бит/сек
    ElementCount : 729
    Размер потока : 31,9 Кбайт (0%)
    Заголовок : Rus [дед_сто_лет]
    Язык : Russian
    Default : Нет
    Forced : Нет

    Текст #2
    Идентификатор : 6
    Формат : UTF-8
    Идентификатор кодека : S_TEXT/UTF8
    Идентификатор кодека/Информация : UTF-8 Plain Text
    Продолжительность : 2 ч. 20 м.
    Битрейт : 16 бит/сек
    ElementCount : 712
    Размер потока : 16,9 Кбайт (0%)
    Язык : English
    Default : Нет
    Forced : Нет

    Меню
    00:00:00.000 : en:00:00:00.000
    00:05:33.332 : en:00:05:33.332
    00:12:12.063 : en:00:12:12.063
    00:18:30.608 : en:00:18:30.608
    00:22:48.240 : en:00:22:48.240
    00:30:37.125 : en:00:30:37.125
    00:39:33.454 : en:00:39:33.454
    00:49:28.382 : en:00:49:28.382
    00:59:37.657 : en:00:59:37.657
    01:03:57.500 : en:01:03:57.500
    01:09:43.845 : en:01:09:43.845
    01:16:12.024 : en:01:16:12.024
    01:25:42.804 : en:01:25:42.804
    01:32:12.484 : en:01:32:12.484
    01:39:23.791 : en:01:39:23.791
    01:44:22.296 : en:01:44:22.296
    01:55:05.856 : en:01:55:05.856
    02:04:04.770 : en:02:04:04.770
    02:10:54.930 : en:02:10:54.930
    02:18:18.331 : en:02:18:18.331
    Еще похожие »

    Как скачать?
    1. Качаем UTorrent версии 2.0 и выше отсюда
    2. После установки, жмем на ссылку Скачать торрент.
    3. Открываем его через utorrent.
    4. Ждем пока подключатся участники.
    5. Качаем.


    Комментарии о Улов / Gyoei no mure | BDRip 720p
    Добавлять комментарии могут только зарегистрированные пользователи

    Зарегистрироваться или Войти


    Ближайшее в кино
    • Аллилуйя! дата выхода 13 ноября 2018Аллилуйя!
      Дата выхода: 13 ноября 2018
    • 1199695|Coldplay: A Head Full of Dreams|14 ноября 2018|200|300Coldplay: A Head Full of Dreams
      Дата выхода: 14 ноября 2018
    • 843479|Фантастические твари: Преступления Грин-де-Вальда|15 ноября 2018|200|300Фантастические твари: Преступления Грин-де-Вальда
      Дата выхода: 15 ноября 2018
    • 1070264|Догмэн|15 ноября 2018|200|300Догмэн
      Дата выхода: 15 ноября 2018
    • 1068448|Оцепеневшие от страха|15 ноября 2018|200|300Оцепеневшие от страха
      Дата выхода: 15 ноября 2018
    • 1065878|Холодная война|15 ноября 2018|200|300Холодная война
      Дата выхода: 15 ноября 2018
    • 933787|Не чужие|15 ноября 2018|200|300Не чужие
      Дата выхода: 15 ноября 2018
    • 1045040|Облепиховое лето|15 ноября 2018|200|300Облепиховое лето
      Дата выхода: 15 ноября 2018
    • 1085625|Соната|15 ноября 2018|200|300Соната
      Дата выхода: 15 ноября 2018
    • 1174349|Безумие Георга III|20 ноября 2018|200|300Безумие Георга III
      Дата выхода: 20 ноября 2018
    • 7226|Догвилль|22 ноября 2018|200|300Догвилль
      Дата выхода: 22 ноября 2018
    • 1009784|Апгрейд|22 ноября 2018|200|300Апгрейд
      Дата выхода: 22 ноября 2018
    • 988782|Ральф против интернета|22 ноября 2018|200|300Ральф против интернета
      Дата выхода: 22 ноября 2018
    • 965901|Вдовы|22 ноября 2018|200|300Вдовы
      Дата выхода: 22 ноября 2018
    • 1011685|Нация убийц|22 ноября 2018|200|300Нация убийц
      Дата выхода: 22 ноября 2018
    Вверх