• Игры для PS4
  • Игры для PS3
  • Игры для XBOX360
  • Игры для PC
  • Игры для PS2
  • Игры для PSP
  • Для телефонов
  • Музыка
  • Книги / Журналы
  • Обои
  • Опрос
    Откуда Вы о нас узнали?
      0
    • От знакомых2,1,false,300,full
    • Из социальных сетей2,2,false,300,full
    • Из поисковых систем2,3,false,300,full
    • Другое2,4,false,300,full
    Статистика
    Всего онлайн -
    Гостей -
    Пользователей -
    Короли трекера
    
    Благодарности () Закрыть
    Информация о фильме
    Название: Смертельный побег
    Оригинальное название: Shissô
    Год выхода: 2005
    Жанр: драма
    Режиссер: Сабу
    В ролях: Юя Тэгоси, Ханаэ Кан, Мики Накатани, Эцуси Тоёкава, Рен Осуги, Сусуму Тэрадзима, Рё Касэ, Сюн Сугата, Хитоми Такахаси, Тасуку Эмото, Рёусэи Таяма, Кадзума Судзуки, Шин Язава, Сэй Хираидзуми, Фумио Китагами, Сёкэн Кунимото

    Описание: Сюдзи живет в маленьком городке, в котором никогда ничего не происходит. У него есть семья. Но матери нет до него дела, отец почти никогда не бывает дома, а старший брат потихоньку сходит с ума. Сюдзи — староста класса, но у него нет друзей.

    Когда в местной церкви появляется новый священник, а в классе Сюдзи — новая ученица, казалось бы, одиночеству его приходит конец.

    Однако цепочка мрачных событий развеивает все иллюзии, и даже решение Сюдзи сбежать в Токио оказывается его очередным шагом на пути к нелепой смерти.



    Страна: Япония
    Продолжительность: 02:04:32
    Перевод: Любительский (одноголосый закадровый) Олег Воротилин по субтитрам Lunaloca
    Оригинальная аудиодорожка: японский

    Файл
    Качество: BDRip 720p
    Видео: AVC / 1280x692 / 16:9 / 23.976 fps / 10000 Kbps / High@L4.1
    Аудио 1: Rus: DTS Core 48.0 KHz / 2.0 / 1509kbps / 24 bit / VO / О. Воротилин
    Аудио 2: Jap: DTS Core 48.0 KHz / 2.0 / 1509kbps / 24 bit
    Субтитры: русские Lunaloca, английские

    Скриншоты
    [screen]http://img12.lostpic.net/2017/10/03/1416be14c613908e714efe9ac444ccc4.png[/screen][screen]http://img12.lostpic.net/2017/10/03/90d847b44f4cea13b37fd8f80610ca48.png[/screen][screen]http://img12.lostpic.net/2017/10/03/e56550921a0b57909650a70294265a43.png[/screen]Свернуть


    MediaInfo
    Общее
    Уникальный идентификатор : 194127656477964885159576420075673353704 (0x920BA06D150EB986A9DE0E495E25FDE8)
    Полное имя : Dead.Run.2005.BDRip.720p.mkv
    Формат : Matroska
    Версия формата : Version 4 / Version 2
    Размер файла : 11,3 Гбайт
    Продолжительность : 2 ч. 4 м.
    Общий поток : 13,0 Мбит/сек
    Название фильма : Dead.Run.2005.BDRip.720p-porvaliparus
    Дата кодирования : UTC 2017-08-30 02:04:46
    Программа кодирования : mkvmerge v15.0.0 ("Duel with the Devil") 64-bit
    Библиотека кодирования : libebml v1.3.5 + libmatroska v1.4.5

    Видео
    Идентификатор : 1
    Формат : AVC
    Формат/Информация : Advanced Video Codec
    Профиль формата : High@L4.1
    Параметр CABAC формата : Да
    Параметр ReFrames формата : 9 кадров
    Идентификатор кодека : V_MPEG4/ISO/AVC
    Продолжительность : 2 ч. 4 м.
    Битрейт : 10000 Кбит/сек
    Ширина : 1280 пикселей
    Высота : 692 пикселя
    Соотношение сторон : 1,85:1
    Режим частоты кадров : Постоянный
    Частота кадров : 23,976 (24000/1001) кадра/сек
    Цветовое пространство : YUV
    Субдискретизация насыщенности : 4:2:0
    Битовая глубина : 8 бит
    Тип развёртки : Прогрессивная
    Бит/(Пиксели*Кадры) : 0.471
    Размер потока : 8,70 Гбайт (77%)
    Заголовок : Dead.Run.2005.BDRip.720p
    Библиотека кодирования : x264 core 152 r2851 ba24899
    Настройки программы : cabac=1 / ref=9 / deblock=1:-3:-3 / analyse=0x3:0x133 / me=umh / subme=11 / psy=1 / psy_rd=1.00:0.10 / mixed_ref=1 / me_range=32 / chroma_me=1 / trellis=2 / 8x8dct=1 / cqm=0 / deadzone=21,11 / fast_pskip=0 / chroma_qp_offset=-3 / threads=12 / lookahead_threads=3 / sliced_threads=0 / nr=0 / decimate=1 / interlaced=0 / bluray_compat=0 / constrained_intra=0 / bframes=10 / b_pyramid=2 / b_adapt=2 / b_bias=0 / direct=3 / weightb=1 / open_gop=0 / weightp=2 / keyint=250 / keyint_min=23 / scenecut=40 / intra_refresh=0 / rc_lookahead=40 / rc=2pass / mbtree=0 / bitrate=10000 / ratetol=1.0 / qcomp=0.60 / qpmin=0 / qpmax=69 / qpstep=4 / cplxblur=20.0 / qblur=0.5 / vbv_maxrate=50000 / vbv_bufsize=62500 / nal_hrd=none / filler=0 / ip_ratio=1.40 / pb_ratio=1.30 / aq=1:0.80
    Default : Да
    Forced : Нет

    Аудио #1
    Идентификатор : 2
    Формат : DTS
    Формат/Информация : Digital Theater Systems
    Режим : 16
    Параметр Endianness формата : Big
    Идентификатор кодека : A_DTS
    Продолжительность : 2 ч. 4 м.
    Вид битрейта : Постоянный
    Битрейт : 1509 Кбит/сек
    Каналы : 2 канала
    Расположение каналов : Front: L R
    Частота : 48,0 КГц
    Частота кадров : 93,750 кадра/сек (512 spf)
    Битовая глубина : 24 бит
    Метод сжатия : С потерями
    Размер потока : 1,31 Гбайт (12%)
    Заголовок : VO [О. Воротилин]
    Язык : Russian
    Default : Да
    Forced : Нет

    Аудио #2
    Идентификатор : 3
    Формат : DTS
    Формат/Информация : Digital Theater Systems
    Режим : 16
    Параметр Endianness формата : Big
    Идентификатор кодека : A_DTS
    Продолжительность : 2 ч. 4 м.
    Вид битрейта : Постоянный
    Битрейт : 1509 Кбит/сек
    Каналы : 2 канала
    Расположение каналов : Front: L R
    Частота : 48,0 КГц
    Частота кадров : 93,750 кадра/сек (512 spf)
    Битовая глубина : 24 бит
    Метод сжатия : С потерями
    Размер потока : 1,31 Гбайт (12%)
    Язык : Japanese
    Default : Нет
    Forced : Нет

    Текст #1
    Идентификатор : 4
    Формат : UTF-8
    Идентификатор кодека : S_TEXT/UTF8
    Идентификатор кодека/Информация : UTF-8 Plain Text
    Продолжительность : 2 ч. 0 м.
    Битрейт : 64 бит/сек
    ElementCount : 1316
    Размер потока : 57,4 Кбайт (0%)
    Заголовок : [Lunaloca]
    Язык : Russian
    Default : Нет
    Forced : Нет

    Текст #2
    Идентификатор : 5
    Формат : UTF-8
    Идентификатор кодека : S_TEXT/UTF8
    Идентификатор кодека/Информация : UTF-8 Plain Text
    Продолжительность : 1 ч. 58 м.
    Битрейт : 31 бит/сек
    ElementCount : 968
    Размер потока : 27,4 Кбайт (0%)
    Язык : English
    Default : Нет
    Forced : Нет

    Меню
    00:00:00.000 : en:(01)00:00:00:000
    00:02:23.393 : en:(02)00:02:23:393
    00:12:51.061 : en:(03)00:12:51:061
    00:21:27.744 : en:(04)00:21:27:744
    00:26:27.168 : en:(05)00:26:27:168
    00:29:45.742 : en:(06)00:29:45:742
    00:34:46.417 : en:(07)00:34:46:417
    00:40:06.362 : en:(08)00:40:06:362
    00:44:54.233 : en:(09)00:44:54:233
    00:52:27.352 : en:(10)00:52:27:352
    01:00:04.142 : en:(11)01:00:04:142
    01:07:54.445 : en:(12)01:07:54:445
    01:12:36.185 : en:(13)01:12:36:185
    01:16:19.116 : en:(14)01:16:19:116
    01:22:18.516 : en:(15)01:22:18:516
    01:36:49.261 : en:(16)01:36:49:261
    01:42:20.551 : en:(17)01:42:20:551
    01:48:25.999 : en:(18)01:48:25:999
    01:57:46.726 : en:(19)01:57:46:726
    02:00:49.951 : en:(20)02:00:49:951Свернуть
    Похожие раздачи Искать похожие
    Инструкция по скачиванию
     1  Качаем uTorrent версии 2.0 и выше
     2  После установки, жмем выше под постером на ссылку Скачать [MediaGet] или Скачать .torrent
     3  Открываем скачанный файл через соответствующий клиент: MediaGet или uTorrent
     4  Ждем пока подключатся участники
     5  Качаем
    Комментарии о  Смертельный побег / Shissô | BDRip 720p 
    Ближайшее в кино
    Вверх