• Игры для PS4
  • Игры для PS3
  • Игры для XBOX360
  • Игры для PC
  • Игры для PS2
  • Игры для PSP
  • Для телефонов
  • Музыка
  • Книги / Журналы
  • Обои
  • Опрос
    Откуда Вы о нас узнали?
      0
    • От знакомых2,1,false,300,full
    • Из социальных сетей2,2,false,300,full
    • Из поисковых систем2,3,false,300,full
    • Другое2,4,false,300,full
    Статистика
    Всего онлайн -
    Гостей -
    Пользователей -
    Короли трекера
    
    Благодарности () Закрыть
    Информация о фильме
    Название: Гончие любви
    Оригинальное название: Hounds of Love
    Год выпуска: 2016
    Жанр:  Триллер, драма, криминал
    Режиссер: Бен Янг
    В ролях: Эмма Бут, Эшли Каммингс, Стефен Керри, Сьюзи Портер, Дэмиан Де Монтема, Харрисон Гилбертсон, Флетчер Хамфрис, Стив Тернер, Холли Джонс

    О фильме :
    В середине 80-х годов супружеская пара из неблагополучного пригорода Перта похищает 17-летнюю Вики Малоуни. В заточении девушка наблюдает за непростыми отношениями между похитителями, и её единственная возможность вырваться из заточения — настроить их друг против друга.



    Страна: Австралия
    Студия: Factor 30 Films
    Продолжительность: 01:48:10
    Озвучивание: Любительское (одноголосое) [BadBajo]

    Файл
    Формат: MKV
    Качество: WEB-DLRip-AVC
    Видео: MPEG-4 AVC, 768x320, ~ 890 Кбит/с
    Аудио: [img]http://i93.fastpic.ru/big/2017/0727/c0/4b72f0369a3393219ed5935e91fc15c0.gif[/img] AAC-LC, 2 ch, ~72 Кбит/с

    MI
    Общее
    Уникальный идентификатор : 214560273381757844074820914941947465595 (0xA16ACE37C01B883EA1F4DB7348FECF7B)
    Полное имя : D:MOVIESHounds.of.Love.2016.ExKinoRay.mkv
    Формат : Matroska
    Версия формата : Version 4 / Version 2
    Размер файла : 744 Мбайт
    Продолжительность : 1 ч. 48 м.
    Общий поток : 962 Кбит/сек
    Дата кодирования : UTC 2017-10-03 17:34:34
    Программа кодирования : mkvmerge v15.0.0 ("Duel with the Devil") 64-bit
    Библиотека кодирования : libebml v1.3.5 + libmatroska v1.4.5

    Видео
    Идентификатор : 1
    Формат : AVC
    Формат/Информация : Advanced Video Codec
    Профиль формата : High@L4.1
    Параметр CABAC формата : Да
    Параметр RefFrames формата : 10 кадров
    Идентификатор кодека : V_MPEG4/ISO/AVC
    Продолжительность : 1 ч. 48 м.
    Битрейт : 890 Кбит/сек
    Ширина : 768 пикселей
    Высота : 320 пикселей
    Соотношение сторон : 2,40:1
    Режим частоты кадров : Постоянный
    Частота кадров : 24,000 кадра/сек
    Цветовое пространство : YUV
    Субдискретизация насыщенности : 4:2:0
    Битовая глубина : 8 бит
    Тип развёртки : Прогрессивная
    Бит/(Пиксели*Кадры) : 0.151
    Размер потока : 687 Мбайт (92%)
    Библиотека кодирования : x264 core 152 r2851kMod ba24899
    Настройки программы : cabac=1 / ref=10 / deblock=1:-3:-3 / analyse=0x3:0x113 / me=umh / subme=11 / psy=1 / fade_compensate=0.00 / psy_rd=1.00:0.10 / mixed_ref=1 / me_range=32 / chroma_me=1 / trellis=2 / 8x8dct=1 / cqm=0 / deadzone=21,11 / fast_pskip=0 / chroma_qp_offset=-3 / threads=6 / lookahead_threads=1 / sliced_threads=0 / nr=0 / decimate=0 / interlaced=0 / bluray_compat=0 / constrained_intra=0 / bframes=10 / b_pyramid=2 / b_adapt=2 / b_bias=0 / direct=3 / weightb=1 / open_gop=0 / weightp=2 / keyint=240 / keyint_min=23 / scenecut=40 / intra_refresh=0 / rc_lookahead=40 / rc=2pass / mbtree=1 / bitrate=890 / ratetol=1.0 / qcomp=0.60 / qpmin=0 / qpmax=69 / qpstep=4 / cplxblur=20.0 / qblur=0.5 / vbv_maxrate=50000 / vbv_bufsize=62500 / nal_hrd=none / filler=0 / ip_ratio=1.40 / aq=3:1.00
    Default : Да
    Forced : Нет

    Аудио
    Идентификатор : 2
    Формат : AAC
    Формат/Информация : Advanced Audio Codec
    Профиль формата : LC
    Идентификатор кодека : A_AAC
    Продолжительность : 1 ч. 48 м.
    Битрейт : 72,0 Кбит/сек
    Каналы : 2 канала
    Расположение каналов : Front: L R
    Частота : 48,0 КГц
    Частота кадров : 46,875 кадров/сек (1024 SPF)
    Метод сжатия : С потерями
    Задержка видео : 9 мс.
    Размер потока : 55,7 Мбайт (7%)
    Default : Да
    Forced : Нет
    Свернуть


    Скриншоты
    [screen]http://i96.fastpic.ru/big/2017/1003/38/a165cdfde31cb1489678e4b8140f6b38.jpg[/screen][screen]http://i92.fastpic.ru/big/2017/1003/77/ef9880871e39cdc3a498c8152402fa77.jpg[/screen][screen]http://i89.fastpic.ru/big/2017/1003/e5/dcccc4fba9eda030e85e9cb447eecfe5.jpg[/screen][screen]http://i89.fastpic.ru/big/2017/1003/c5/a203365b503c0feae49afbcfadcaf4c5.jpg[/screen]

    [screen]http://i91.fastpic.ru/big/2017/1003/f7/c045d3990339329a3bdd3dbbcc7356f7.jpg[/screen][screen]http://i91.fastpic.ru/big/2017/1003/61/724ea4027f7d9f00c152cfeaa02d4b61.jpg[/screen][screen]http://i92.fastpic.ru/big/2017/1003/5e/09f609ecdd8abee62d5e61ac6569aa5e.jpg[/screen][screen]http://i94.fastpic.ru/big/2017/1003/32/b5941fa1409a3d6493789f3ff00a5f32.jpg[/screen]Свернуть
    Похожие раздачи Искать похожие
    Инструкция по скачиванию
     1  Качаем uTorrent версии 2.0 и выше
     2  После установки, жмем выше под постером на ссылку Скачать [MediaGet] или Скачать .torrent
     3  Открываем скачанный файл через соответствующий клиент: MediaGet или uTorrent
     4  Ждем пока подключатся участники
     5  Качаем
    Комментарии о  Гончие любви / Hounds of Love | WEB-DLRip-AVC 
    Ближайшее в кино
    Вверх