• Игры для PS4
  • Игры для PS3
  • Игры для XBOX360
  • Игры для PC
  • Игры для PS2
  • Игры для PSP
  • Для телефонов
  • Музыка
  • Книги / Журналы
  • Обои
  • Опрос
    Удобен ли сайт в использовании?
      0
    • Очень удобен, все понятно1,1,false,300,full
    • Удобен1,2,false,300,full
    • Средне1,3,false,300,full
    • Неудобен, трудно ориентироваться1,4,false,300,full
    • Совсем неудобен1,5,false,300,full
    Статистика
    Всего онлайн -
    Гостей -
    Пользователей -
    Короли трекера
    Благодарности () Закрыть
    Исполнитель: Ирина Богушевская
    Жанр:  POP
    Год выпуска: 2017
    Продолжительность: 00:53:56

    Описание:  Акустический концерт Ирины Богушевской в рамках
    программы "Квартирник у Маргулиса" на телеканале НТВ.

    Отдельная благодарность пользователю  kuzmichm2196 за исходник.

    Формат: MKV
    Качество: HDTV 1080i
    Видео кодек: H.264
    Аудио кодек: MP2
    Видео: H264; 1920x1080 (16:9); 25.000 fps; ~8 008 kb/s
    Аудио: MPEG Audio 48000Hz stereo 192 Кбит/сек

    Треклист
    01. Обнимая ветер
    02. Шарманка осень
    03. Ключи в твоих руках
    04. Беловежская пуща
    05. Ловушки
    06. Лузер-блюз
    07. У нас в раю
    08.УлетаюСвернуть


    MedaInfo
    Complete name               : D:Bogushevskaya_07.10.17.mkv
    Format                      : Matroska
    Format version              : Version 4 / Version 2
    File size                   : 3.09 GiB
    Duration                    : 53 min 56 s
    Overall bit rate            : 8 211 kb/s
    Encoded date                : UTC 2017-10-11 00:06:21
    Writing application         : mkvmerge v8.3.0 ("Over the Horizon") 64bit
    Writing library             : libebml v1.3.1 + libmatroska v1.4.2

    Video
    ID                          : 1
    Format                      : AVC
    Format/Info                 : Advanced Video Codec
    Format profile              : High@L4
    Format settings, CABAC      : Yes
    Format settings, ReFrames   : 4 frames
    Codec ID                    : V_MPEG4/ISO/AVC
    Duration                    : 53 min 56 s
    Bit rate                    : 8 015 kb/s
    Width                       : 1 920 pixels
    Height                      : 1 080 pixels
    Display aspect ratio        : 16:9
    Frame rate mode             : Variable
    Frame rate                  : 50.000 FPS
    Original frame rate         : 25.000 FPS
    Standard                    : Component
    Color space                 : YUV
    Chroma subsampling          : 4:2:0
    Bit depth                   : 8 bits
    Scan type                   : Interlaced
    Scan type, store method     : Separated fields
    Scan order                  : Top Field First
    Bits/(Pixel*Frame)          : 0.077
    Stream size                 : 3.02 GiB (98%)
    Default                     : Yes
    Forced                      : No
    Color range                 : Limited
    Color primaries             : BT.709
    Transfer characteristics    : BT.709
    Matrix coefficients         : BT.709

    Audio
    ID                          : 2
    Format                      : MPEG Audio
    Format version              : Version 1
    Format profile              : Layer 2
    Codec ID                    : A_MPEG/L2
    Codec ID/Hint               : MP2
    Duration                    : 53 min 56 s
    Bit rate mode               : Constant
    Bit rate                    : 192 kb/s
    Channel(s)                  : 2 channels
    Sampling rate               : 48.0 kHz
    Frame rate                  : 41.667 FPS (1152 spf)
    Compression mode            : Lossy
    Stream size                 : 74.1 MiB (2%)
    Language                    : Russian
    Default                     : Yes
    Forced                      : NoСвернуть


    Похожие раздачи Искать похожие
    Инструкция по скачиванию
     1  Качаем uTorrent версии 2.0 и выше
     2  После установки, жмем выше под постером на ссылку Скачать [MediaGet] или Скачать .torrent
     3  Открываем скачанный файл через соответствующий клиент: MediaGet или uTorrent
     4  Ждем пока подключатся участники
     5  Качаем
    Комментарии о  Ирина Богушевская - Концерт у Маргулиса на НТВ [07.10] 
    Ближайшее в кино
    Вверх