• Игры для PS3
  • Игры для XBOX360
  • Игры для PC
  • Игры для PS2
  • Игры для PSP
  • Для телефонов
  • Музыка
  • Книги/Журналы
  • Обои
  •  
    Опрос
    Удобен ли сайт в использовании?
      0
    • Очень удобен, все понятно1,1,false,300,full
    • Удобен1,2,false,300,full
    • Средне1,3,false,300,full
    • Неудобен, трудно ориентироваться1,4,false,300,full
    • Совсем неудобен1,5,false,300,full
    Статистика
    Загрузка...
    Александр Иванов и группа Рондо - Концерт у Маргулиса на НТВ [04.10]
    Статус  Проверено
    В закладки
    Модератор: Max

    Александр Иванов и группа Рондо - Концерт у Маргулиса на НТВ [04.10] [Музыка 2017] скачать торрентом/torrent бесплатно

    Год выхода
    Категории
    Язык
    Закачал
    Аноним | 15 октября 2017 в 10ч 34м 48с
    Раздел
    Отзывов
    0
    Раздают: 82 Качают: 16 Скачали: 156 Размер: 3.11 GB
    Файлы (1) | Благодарности | Хэш код |
    0/5
    0
    Поддержи нас — расскажи друзьям!
    Orbitum
    Новый интернет-браузер Быстрее загружает сайты Экономит интернет—трафик Меняет оформление страницы ВК Блокирует всю рекламу на сайтах Загружает торренты как

    µTorrent

    клиент
    Объеденяет все твои чаты из соц. сетей в один Проигрывает твою музыку не заходя во ВКонтакте
    Скачать и многое другое... Подробности на сайте производителя
    Исполнитель: Александр Иванов и группа Рондо
    Жанр:  POP, ROCK
    Год выпуска: 2017
    Продолжительность: 00:52:59

    Описание:  Концерт Александрв Иванова и группы Рондо в рамках
    программы "Квартирник у Маргулиса" на телеканале НТВ.

    Отдельная благодарность пользователю  kuzmichm2196 за исходник.

    Формат: MKV
    Качество: HDTV 1080i
    Видео кодек: H.264
    Аудио кодек: MP2
    Видео: H264; 1920x1080 (16:9); 25.000 fps; ~8 008 kb/s
    Аудио: MPEG Audio 48000Hz stereo 192 Кбит/сек

    Треклист
    01. Этой Весной
    02. Московская осень
    03. Я буду помнить
    04. Моя неласковая Русь
    05. Я постелю тебе под ноги небо
    06. Ночь
    07. Боже какой пустяк


    MedaInfo
    Ivanov_14.10.17.mkv
    Format                                   : Matroska
    Format version                           : Version 4 / Version 2
    File size                                : 3.11 GiB
    Duration                                 : 52 min 59 s
    Overall bit rate                         : 8 410 kb/s
    Encoded date                             : UTC 2017-10-14 23:55:29
    Writing application                      : mkvmerge v16.0.0 ("Protest") 64-bit
    Writing library                          : libebml v1.3.5 + libmatroska v1.4.8

    Video
    ID                                       : 1
    Format                                   : AVC
    Format/Info                              : Advanced Video Codec
    Format profile                           : High@L4
    Format settings                          : CABAC / 4 Ref Frames
    Format settings, CABAC                   : Yes
    Format settings, RefFrames               : 4 frames
    Codec ID                                 : V_MPEG4/ISO/AVC
    Duration                                 : 52 min 59 s
    Bit rate                                 : 8 215 kb/s
    Width                                    : 1 920 pixels
    Height                                   : 1 080 pixels
    Display aspect ratio                     : 16:9
    Frame rate mode                          : Variable
    Frame rate                               : 50.000 FPS
    Original frame rate                      : 25.000 FPS
    Standard                                 : Component
    Color space                              : YUV
    Chroma subsampling                       : 4:2:0
    Bit depth                                : 8 bits
    Scan type                                : Interlaced
    Scan type, store method                  : Separated fields
    Scan order                               : Top Field First
    Bits/(Pixel*Frame)                       : 0.079
    Stream size                              : 3.04 GiB (98%)
    Default                                  : Yes
    Forced                                   : No
    Color range                              : Limited
    Color primaries                          : BT.709
    Transfer characteristics                 : BT.709
    Matrix coefficients                      : BT.709

    Audio
    ID                                       : 2
    Format                                   : MPEG Audio
    Format version                           : Version 1
    Format profile                           : Layer 2
    Codec ID                                 : A_MPEG/L2
    Codec ID/Hint                            : MP2
    Duration                                 : 52 min 59 s
    Bit rate mode                            : Constant
    Bit rate                                 : 192 kb/s
    Channel(s)                               : 2 channels
    Sampling rate                            : 48.0 kHz
    Frame rate                               : 41.667 FPS (1152 SPF)
    Compression mode                         : Lossy
    Stream size                              : 72.8 MiB (2%)
    Language                                 : Russian
    Default                                  : Yes
    Forced                                   : No


    Еще похожие »

    Как скачать?
    1. Качаем UTorrent версии 2.0 и выше отсюда
    2. После установки, жмем на ссылку Скачать торрент.
    3. Открываем его через utorrent.
    4. Ждем пока подключатся участники.
    5. Качаем.


    Комментарии о Александр Иванов и группа Рондо - Концерт у Маргулиса на НТВ [04.10]
    Добавлять комментарии могут только зарегистрированные пользователи

    Зарегистрироваться или Войти


    Ближайшее в кино
    • Пианистка дата выхода 18 января 2018Пианистка
      Дата выхода: 18 января 2018
    • Форма воды дата выхода 18 января 2018Форма воды
      Дата выхода: 18 января 2018
    • Астрал 4: Последний ключ дата выхода 18 января 2018Астрал 4: Последний ключ
      Дата выхода: 18 января 2018
    • Темные времена дата выхода 18 января 2018Темные времена
      Дата выхода: 18 января 2018
    • Скиф дата выхода 18 января 2018Скиф
      Дата выхода: 18 января 2018
    • Приключения Паддингтона 2 дата выхода 18 января 2018Приключения Паддингтона 2
      Дата выхода: 18 января 2018
    • Карп отмороженный дата выхода 18 января 2018Карп отмороженный
      Дата выхода: 18 января 2018
    • Мешок без дна дата выхода 18 января 2018Мешок без дна
      Дата выхода: 18 января 2018
    • МУЛЬТ в кино. Выпуск №67. Зимний карнавал дата выхода 20 января 2018МУЛЬТ в кино. Выпуск №67. Зимний карнавал
      Дата выхода: 20 января 2018
    • Смерть Сталина дата выхода 25 января 2018Смерть Сталина
      Дата выхода: 25 января 2018
    • Zомбоящик дата выхода 25 января 2018Zомбоящик
      Дата выхода: 25 января 2018
    • Хэппи-энд дата выхода 25 января 2018Хэппи-энд
      Дата выхода: 25 января 2018
    • Побег из Рио дата выхода 25 января 2018Побег из Рио
      Дата выхода: 25 января 2018
    • Девушка в тумане дата выхода 25 января 2018Девушка в тумане
      Дата выхода: 25 января 2018
    • Выставка Hokusai Британского музея дата выхода 25 января 2018Выставка Hokusai Британского музея
      Дата выхода: 25 января 2018
    Вверх