• Игры для PS4
  • Игры для PS3
  • Игры для XBOX360
  • Игры для PC
  • Игры для PS2
  • Игры для PSP
  • Для телефонов
  • Музыка
  • Книги / Журналы
  • Обои
  • Опрос
    Удобен ли сайт в использовании?
      0
    • Очень удобен, все понятно1,1,false,300,full
    • Удобен1,2,false,300,full
    • Средне1,3,false,300,full
    • Неудобен, трудно ориентироваться1,4,false,300,full
    • Совсем неудобен1,5,false,300,full
    Статистика
    Всего онлайн -
    Гостей -
    Пользователей -
    Короли трекера
    
    Благодарности () Закрыть
    Быстрее загружает сайты Экономит интернет—трафик Меняет оформление страницы ВК Блокирует всю рекламу на сайтах Загружает торренты как µTorrent клиент Объеденяет все твои чаты из соц. сетей в один Проигрывает твою музыку не заходя во ВКонтакте
    Новый интернет-браузер
    Оrbitum
    Скачать
    и многое другое... Подробности на сайте производителя
    Информация о фильме
    Название: Ты лучше смотри в оба
    Оригинальное название: You Better Watch Out
    Год выхода: 1980
    Жанр: ужасы, триллер
    Режиссер: Льюис Джексон
    В ролях: Брэндон Мэггарт, Джеффри ДеМанн, Дайян Халл, Энди Фенвик, Брайан Невилл, Джо Джамрог, Уолли Моран, Гас Салуд, Эллен МакЭлдафф, Брайан Хэртиган

    Описание: Канун рождества 1947 года. Маленький мальчик Гарри случайно видит, как его мать занимается оральным сексом с мужчиной в наряде Санта — Клауса. Гарри выбегает из дома и в припадке ревности ломает стоящего во дворе снеговика, растаптывая снег на мелкие кусочки.

    Проходит много лет. Гарри очень трепетно относится к рождественским праздникам и обожает Санта — Клауса. Он даже работает на кукольной фабрике «Jolly Dream Toy Factory», изготавливающей рождественские игрушки. Но разум Гарри настолько поврежден, что он пристально наблюдает за детьми и заносит их имена в две свои книги: «Плохие дети» и «Хорошие дети». Оказаться в том или ином списке ребёнок может в соответствии со своим отношением к рождеству. Постепенно безумие Гарри начинает принимать насильственные формы…

    [img]http://imdb.snick.ru/ratefor/02/tt0081793.png[/img]

    Страна: США
    Продолжительность: 01:34:12
    Перевод: Авторский (одноголосый закадровый) Андрей Дольский
    Субтитры: нет
    Оригинальная аудиодорожка: английский

    Файл
    Качество: BDRemux 1080р
    Видео: MPEG-4 AVC Video / 23029 kbps / 1080p / 23.976 fps / 16:9 / High Profile 4.1
    Аудио 1: Russian / Dolby Digital Audio / 2.0 / 48 kHz / 192 kbps
    Аудио 2: English / Dolby Digital Audio / 2.0 / 48 kHz / 384 kbps

    Скриншоты
    [screen]http://img12.lostpic.net/2017/10/18/df8197f273b405a252d282506c8425f3.png[/screen][screen]http://img12.lostpic.net/2017/10/18/b01f27ee1cfa839f8596795b42d11cc5.png[/screen][screen]http://img12.lostpic.net/2017/10/18/0ecd890f46c882540bfe58cd4b16a8c6.png[/screen]Свернуть


    MediaInfo
    General
    Unique ID                                : 173128777668914277640500564618323985062 (0x823F63C458E9736F9C088B3D157482A6)
    Complete name                            : Ты лучше смотри в оба (1980. You Better Watch Out).mkv
    Format                                   : Matroska
    Format version                           : Version 2
    File size                                : 15.5 GiB
    Duration                                 : 1h 34mn
    Overall bit rate mode                    : Variable
    Overall bit rate                         : 23.6 Mbps
    Encoded date                             : UTC 2016-03-23 17:58:25
    Writing application                      : mkvmerge v4.9.1 ("Ich will") сборка от Jul 11 2011 23:53:15
    Writing library                          : libebml v1.2.1 + libmatroska v1.1.1
    Cover                                    : Yes
    Attachments                              : cover.jpg

    Video
    ID                                       : 1
    Format                                   : AVC
    Format/Info                              : Advanced Video Codec
    Format profile                           : High@L4.1
    Format settings, CABAC                   : Yes
    Format settings, ReFrames                : 4 frames
    Format settings, GOP                     : M=4, N=24
    Codec ID                                 : V_MPEG4/ISO/AVC
    Duration                                 : 1h 34mn
    Bit rate mode                            : Variable
    Bit rate                                 : 22.5 Mbps
    Maximum bit rate                         : 39.0 Mbps
    Width                                    : 1 920 pixels
    Height                                   : 1 080 pixels
    Display aspect ratio                     : 16:9
    Frame rate mode                          : Constant
    Frame rate                               : 23.976 (24000/1001) fps
    Color space                              : YUV
    Chroma subsampling                       : 4:2:0
    Bit depth                                : 8 bits
    Scan type                                : Progressive
    Bits/(Pixel*Frame)                       : 0.453
    Stream size                              : 14.8 GiB (96%)
    Title                                    : You Better Watch Out 1980 1080p GER Blu-ray AVC DD 2.0
    Language                                 : English
    Default                                  : Yes
    Forced                                   : No
    Color range                              : Limited
    Color primaries                          : BT.709
    Transfer characteristics                 : BT.709
    Matrix coefficients                      : BT.709

    Audio #1
    ID                                       : 2
    Format                                   : AC-3
    Format/Info                              : Audio Coding 3
    Mode extension                           : CM (complete main)
    Format settings, Endianness              : Big
    Codec ID                                 : A_AC3
    Duration                                 : 1h 34mn
    Bit rate mode                            : Constant
    Bit rate                                 : 192 Kbps
    Channel(s)                               : 2 channels
    Channel positions                        : Front: L R
    Sampling rate                            : 48.0 KHz
    Frame rate                               : 31.250 fps (1536 spf)
    Compression mode                         : Lossy
    Stream size                              : 129 MiB (1%)
    Title                                    : Андрей Дольский
    Language                                 : Russian
    Default                                  : Yes
    Forced                                   : No

    Audio #2
    ID                                       : 3
    Format                                   : AC-3
    Format/Info                              : Audio Coding 3
    Mode extension                           : CM (complete main)
    Format settings, Endianness              : Big
    Codec ID                                 : A_AC3
    Duration                                 : 1h 34mn
    Bit rate mode                            : Constant
    Bit rate                                 : 384 Kbps
    Channel(s)                               : 2 channels
    Channel positions                        : Front: L R
    Sampling rate                            : 48.0 KHz
    Frame rate                               : 31.250 fps (1536 spf)
    Compression mode                         : Lossy
    Stream size                              : 259 MiB (2%)
    Language                                 : English
    Default                                  : No
    Forced                                   : No

    Menu
    00:00:00.000                             : en:00:00:00.000
    00:10:38.429                             : en:00:10:38.429
    00:23:37.833                             : en:00:23:37.833
    00:33:01.021                             : en:00:33:01.021
    00:40:24.339                             : en:00:40:24.339
    00:49:53.908                             : en:00:49:53.908
    01:09:10.104                             : en:01:09:10.104
    01:18:42.801                             : en:01:18:42.801Свернуть
    Инструкция по скачиванию
     1  Качаем uTorrent версии 2.0 и выше
     2  После установки, жмем выше под постером на ссылку Скачать [MediaGet] или Скачать .torrent
     3  Открываем скачанный файл через соответствующий клиент: MediaGet или uTorrent
     4  Ждем пока подключатся участники
     5  Качаем
    Комментарии о  Ты лучше смотри в оба / You Better Watch Out | BDRemux 1080p 
    Ближайшее в кино
    Вверх