• Игры для PS3
  • Игры для XBOX360
  • Игры для PC
  • Игры для PS2
  • Игры для PSP
  • Для телефонов
  • Музыка
  • Книги/Журналы
  • Обои
  •  
    Опрос
    Откуда Вы о нас узнали?
      0
    • От знакомых2,1,false,300,full
    • Из социальных сетей2,2,false,300,full
    • Из поисковых систем2,3,false,300,full
    • Другое2,4,false,300,full
    Статистика
    Загрузка...
    Оно / It | HDTVRip 720p
    Статус  Проверено
    В закладки
    Модератор: Max

    Оно / It | HDTVRip 720p [Фильмы 2017] скачать торрентом/torrent бесплатно

    Год выхода
    Категории
    Язык
    Закачал
    Аноним | 01 ноября 2017 в 10ч 14м 25с
    Раздел
    Отзывов
    0
    Раздают: 42 Качают: 7 Скачали: 60 Размер: 4.6 GB
    Инфо о раздаче | Благодарности |
    0/5
    0
    0 5 0
    Поддержи нас — расскажи друзьям!
    Orbitum
    Новый интернет-браузер Быстрее загружает сайты Экономит интернет—трафик Меняет оформление страницы ВК Блокирует всю рекламу на сайтах Загружает торренты как

    µTorrent

    клиент
    Объеденяет все твои чаты из соц. сетей в один Проигрывает твою музыку не заходя во ВКонтакте
    Скачать и многое другое... Подробности на сайте производителя
    Информация о фильме
    Название: Оно
    Оригинальное название: It
    Год выхода: 2017
    Жанр: ужасы, триллер, драма

    Режиссер: Андрес Мускетти

    В ролях: Джейден Либерер, Джереми Рэй Тейлор, Софиа Лиллис, Финн Вулфард, Чоузен Джейкобс, Джек Дилан Грейзер, Уайатт Олефф, Джейк Сим

    О фильме:
    Когда в городке Дерри, штат Мэн, начинают пропадать дети, несколько ребят сталкиваются со своими величайшими страхами и вынуждены помериться силами со злобным клоуном Пеннивайзом, чьи проявления жестокости и список жертв уходят в глубь веков.



    Страна: США, Канада
    Продолжительность: 02:13:43
    Перевод: Профессиональный (полное дублирование) [Чистый звук]

    Файл
    Кодек: x.264
    Качество: HDTVRip 720p
    Видео: AVC, 1280x536 (2.40:1), 23.976 fps, 4 543 Kbps (0.276 bit/pixel)
    Звук:   AC-3, 48.0 KHz, 2 ch, 384 Kbps, CBR
    Субтитры: Корейские (не отключаемые)

    Сэмпл

    MediaInfo
    General
    Unique ID                   : 223431291660079246194722744144148286534 (0xA8174D2FE61288D8ABCD44A89DFBCC46)
    Complete name               : OnnO.2O17.D.HDTV.72Op_KOSHARA.mkv
    Format                      : Matroska
    Format version              : Version 2
    File size                   : 4.60 GiB
    Duration                    : 2 h 13 min
    Overall bit rate mode       : Variable
    Overall bit rate            : 4 929 kb/s
    Encoded date                : UTC 2017-10-28 12:44:23
    Writing application         : mkvmerge v8.3.0 ("Over the Horizon") 64bit
    Writing library             : libebml v1.3.1 + libmatroska v1.4.2

    Video
    ID                          : 1
    Format                      : AVC
    Format/Info                 : Advanced Video Codec
    Format profile              : High@L4.1
    Format settings, CABAC      : Yes
    Format settings, RefFrames  : 12 frames
    Codec ID                    : V_MPEG4/ISO/AVC
    Duration                    : 2 h 13 min
    Bit rate mode               : Variable
    Bit rate                    : 4 543 kb/s
    Maximum bit rate            : 5 000 kb/s
    Width                       : 1 280 pixels
    Height                      : 536 pixels
    Display aspect ratio        : 2.40:1
    Frame rate mode             : Constant
    Frame rate                  : 23.976 (24000/1001) FPS
    Standard                    : Component
    Color space                 : YUV
    Chroma subsampling          : 4:2:0
    Bit depth                   : 8 bits
    Scan type                   : Progressive
    Bits/(Pixel*Frame)          : 0.276
    Stream size                 : 4.24 GiB (92%)
    Default                     : Yes
    Forced                      : No
    Color range                 : Limited
    Color primaries             : BT.709
    Transfer characteristics    : BT.709
    Matrix coefficients         : BT.709

    Audio
    ID                          : 2
    Format                      : AC-3
    Format/Info                 : Audio Coding 3
    Format settings, Endianness : Big
    Codec ID                    : A_AC3
    Duration                    : 2 h 13 min
    Bit rate mode               : Constant
    Bit rate                    : 384 kb/s
    Channel(s)                  : 2 channels
    Channel positions           : Front: L R
    Sampling rate               : 48.0 kHz
    Frame rate                  : 31.250 FPS (1536 SPF)
    Bit depth                   : 16 bits
    Compression mode            : Lossy
    Stream size                 : 367 MiB (8%)
    Service kind                : Complete Main
    Default                     : Yes
    Forced                      : No




    Реклама присутствует !

    Как скачать?
    1. Качаем UTorrent версии 2.0 и выше отсюда
    2. После установки, жмем на ссылку Скачать торрент.
    3. Открываем его через utorrent.
    4. Ждем пока подключатся участники.
    5. Качаем.


    Комментарии о Оно / It | HDTVRip 720p
    Добавлять комментарии могут только зарегистрированные пользователи

    Зарегистрироваться или Войти


    Ближайшее в кино
    • Невидимый гость дата выхода 31 мая 2018Невидимый гость
      Дата выхода: 31 мая 2018
    • 762500|Красный воробей|31 мая 2018|200|300Красный воробей
      Дата выхода: 31 мая 2018
    • 843121|Как разговаривать с девушками на вечеринках|31 мая 2018|200|300Как разговаривать с девушками на вечеринках
      Дата выхода: 31 мая 2018
    • 965611|Истории призраков|31 мая 2018|200|300Истории призраков
      Дата выхода: 31 мая 2018
    • 1048530|Моя жизнь|31 мая 2018|200|300Моя жизнь
      Дата выхода: 31 мая 2018
    • 1030828|Псы под прикрытием|31 мая 2018|200|300Псы под прикрытием
      Дата выхода: 31 мая 2018
    • 927822|Два хвоста|31 мая 2018|200|300Два хвоста
      Дата выхода: 31 мая 2018
    • 1061480|От семьи не убежишь|31 мая 2018|200|300От семьи не убежишь
      Дата выхода: 31 мая 2018
    • 1057083|Сказки о маме|31 мая 2018|200|300Сказки о маме
      Дата выхода: 31 мая 2018
    • 924311|Мир Юрского периода 2|7 июня 2018|200|300Мир Юрского периода 2
      Дата выхода: 7 июня 2018
    • 1074222|Красотка на всю голову|7 июня 2018|200|300Красотка на всю голову
      Дата выхода: 7 июня 2018
    • 1009413|Лето|7 июня 2018|200|300Лето
      Дата выхода: 7 июня 2018
    • 935794|Первые|7 июня 2018|200|300Первые
      Дата выхода: 7 июня 2018
    • 1112132|Реинкарнация|7 июня 2018|200|300Реинкарнация
      Дата выхода: 7 июня 2018
    • 1118194|Решение о ликвидации|7 июня 2018|200|300Решение о ликвидации
      Дата выхода: 7 июня 2018
    Вверх