• Игры для PS3
  • Игры для XBOX360
  • Игры для PC
  • Игры для PS2
  • Игры для PSP
  • Для телефонов
  • Музыка
  • Книги/Журналы
  • Обои
  •  
    Опрос
    Удобен ли сайт в использовании?
      0
    • Очень удобен, все понятно1,1,false,300,full
    • Удобен1,2,false,300,full
    • Средне1,3,false,300,full
    • Неудобен, трудно ориентироваться1,4,false,300,full
    • Совсем неудобен1,5,false,300,full
    Статистика
    Загрузка...
    Счастливого дня смерти / Happy Death Day | WEBRip
    Статус  Проверено
    В закладки
    Модератор: Max

    Счастливого дня смерти / Happy Death Day | WEBRip [Фильмы 2017] скачать торрентом/torrent бесплатно

    Год выхода
    Язык
    Закачал
    Max | 02 ноября 2017 в 21ч 44м 37с
    Раздел
    Отзывов
    0
    Раздают: 85 Качают: 2 Скачали: 121 Размер: 1.37 GB
    Файлы (1) | Благодарности | Хэш код |
    0/5
    0
    Поддержи нас — расскажи друзьям!
    Orbitum
    Новый интернет-браузер Быстрее загружает сайты Экономит интернет—трафик Меняет оформление страницы ВК Блокирует всю рекламу на сайтах Загружает торренты как

    µTorrent

    клиент
    Объеденяет все твои чаты из соц. сетей в один Проигрывает твою музыку не заходя во ВКонтакте
    Скачать и многое другое... Подробности на сайте производителя
    Счастливого дня смерти / Happy Death Day

    Страна: США [img]http://st.kp.yandex.net/images/flags/flag-1.gif[/img]
    Производство: Blumhouse Productions, Digital Riot Media, Vesuvius Productions
    Год выпуска: 2017
    Жанр:  ужасы, триллер, детектив, комедия
    Продолжительность: 01:35:53

    Режиссер: Кристофер Лэндон
    Автор сценария: Скотт Лобделл

    В ролях: Джессика Рот, Израэль Бруссар, Руби Модин, Лаура Клифтон, Джейсон Бэйл, Роб Мелло, Рэйчел Мэттьюз, Фи Ву

    Описание: Каждый в универе мечтал попасть на её день рождения, но праздник был безнадежно испорчен незнакомцем в маске, убившим виновницу торжества. Однако судьба преподнесла имениннице леденящий душу подарок — бесконечный запас жизней. И теперь у девушки появился шанс вычислить своего убийцу, ведь этот день будет повторяться снова и снова…



    Перевод: Любительский (многоголосый, закадровый) | студия Paradox & Omskbird records
    Субтитры: иероглифы (вшитые)

    Качество: WEBRip
    Формат: АVI
    Видео кодек: XviD
    Аудио кодек: АС3
    Видео: 720x288 (2.500), 25.000 fps, XviD ~1 841 kbps avg
    Аудио: 48.0 kHz, AC3 Dolby Digital, 2/0 (L,R) ch, ~192 kbps

    Дата премьеры (мир): 7 октября 2017
    Дата премьеры (РФ): 30 ноября 2017, «UPI»

    [img]http://s020.radikal.ru/i720/1609/54/5ae4dee54ff4.gif[/img][img]http://s018.radikal.ru/i522/1609/79/3d079e982089.gif[/img]

    Media Info
    General
    Complete name                  : Happy Death Day.avi
    Format                         : AVI
    Format/Info                    : Audio Video Interleave
    File size                      : 1.37 GiB
    Duration                       : 1h 35mn
    Overall bit rate               : 2 043 Kbps
    Writing application            : VirtualDubMod 1.5.10.3 | (build 2550/release)

    Video
    ID                             : 0
    Format                         : MPEG-4 Visual
    Format profile                 : Advanced Simple@L5
    Format settings, BVOP          : 2
    Format settings, QPel          : No
    Format settings, GMC           : No warppoints
    Format settings, Matrix        : Custom
    Codec ID                       : XVID
    Codec ID/Hint                  : XviD
    Duration                       : 1h 35mn
    Bit rate                       : 1 841 Kbps
    Width                          : 720 pixels
    Height                         : 288 pixels
    Display aspect ratio           : 2.500
    Frame rate                     : 25.000 fps
    Color space                    : YUV
    Chroma subsampling             : 4:2:0
    Bit depth                      : 8 bits
    Scan type                      : Progressive
    Compression mode               : Lossy
    Bits/(Pixel*Frame)             : 0.355
    Stream size                    : 1.23 GiB (90%)
    Writing library                : XviD 1.2.1 (UTC 2008-12-04)

    Audio
    ID                             : 1
    Format                         : AC-3
    Format/Info                    : Audio Coding 3
    Mode extension                 : CM (complete main)
    Format settings, Endianness    : Big
    Codec ID                       : 2000
    Duration                       : 1h 35mn
    Bit rate mode                  : Constant
    Bit rate                       : 192 Kbps
    Channel(s)                     : 2 channels
    Channel positions              : Front: L R
    Sampling rate                  : 48.0 KHz
    Compression mode               : Lossy
    Stream size                    : 132 MiB (9%)
    Alignment                      : Split accross interleaves
    Interleave, duration           : 40 ms (1.00 video frame)
    Interleave, preload duration   : 500 ms


    Еще похожие »

    Как скачать?
    1. Качаем UTorrent версии 2.0 и выше отсюда
    2. После установки, жмем на ссылку Скачать торрент.
    3. Открываем его через utorrent.
    4. Ждем пока подключатся участники.
    5. Качаем.


    Комментарии о Счастливого дня смерти / Happy Death Day | WEBRip
    Добавлять комментарии могут только зарегистрированные пользователи

    Зарегистрироваться или Войти


    Ближайшее в кино
    • Пианистка дата выхода 18 января 2018Пианистка
      Дата выхода: 18 января 2018
    • Форма воды дата выхода 18 января 2018Форма воды
      Дата выхода: 18 января 2018
    • Астрал 4: Последний ключ дата выхода 18 января 2018Астрал 4: Последний ключ
      Дата выхода: 18 января 2018
    • Темные времена дата выхода 18 января 2018Темные времена
      Дата выхода: 18 января 2018
    • Скиф дата выхода 18 января 2018Скиф
      Дата выхода: 18 января 2018
    • Приключения Паддингтона 2 дата выхода 18 января 2018Приключения Паддингтона 2
      Дата выхода: 18 января 2018
    • Карп отмороженный дата выхода 18 января 2018Карп отмороженный
      Дата выхода: 18 января 2018
    • Мешок без дна дата выхода 18 января 2018Мешок без дна
      Дата выхода: 18 января 2018
    • МУЛЬТ в кино. Выпуск №67. Зимний карнавал дата выхода 20 января 2018МУЛЬТ в кино. Выпуск №67. Зимний карнавал
      Дата выхода: 20 января 2018
    • Смерть Сталина дата выхода 25 января 2018Смерть Сталина
      Дата выхода: 25 января 2018
    • Zомбоящик дата выхода 25 января 2018Zомбоящик
      Дата выхода: 25 января 2018
    • Хэппи-энд дата выхода 25 января 2018Хэппи-энд
      Дата выхода: 25 января 2018
    • Побег из Рио дата выхода 25 января 2018Побег из Рио
      Дата выхода: 25 января 2018
    • Девушка в тумане дата выхода 25 января 2018Девушка в тумане
      Дата выхода: 25 января 2018
    • Выставка Hokusai Британского музея дата выхода 25 января 2018Выставка Hokusai Британского музея
      Дата выхода: 25 января 2018
    Вверх