• Игры для PS3
  • Игры для XBOX360
  • Игры для PC
  • Игры для PS2
  • Игры для PSP
  • Для телефонов
  • Музыка
  • Книги/Журналы
  • Обои
  •  
    Опрос
    Откуда Вы о нас узнали?
      0
    • От знакомых2,1,false,300,full
    • Из социальных сетей2,2,false,300,full
    • Из поисковых систем2,3,false,300,full
    • Другое2,4,false,300,full
    Статистика
    Загрузка...
    24 часа на жизнь / 24 Hours to Live | WEB-DLRip
    Статус  Проверено
    В закладки
    Модератор: Max

    24 часа на жизнь / 24 Hours to Live | WEB-DLRip [Фильмы 2017] скачать торрентом/torrent бесплатно

    Год выхода
    Язык
    Закачал
    Max | 05 ноября 2017 в 00ч 56м 16с
    Раздел
    Отзывов
    0
    Раздают: 68 Качают: 4 Скачали: 85 Размер: 1.35 GB
    Инфо о раздаче | Благодарности |
    0/5
    0
    0 5 0
    Поддержи нас — расскажи друзьям!
    Orbitum
    Новый интернет-браузер Быстрее загружает сайты Экономит интернет—трафик Меняет оформление страницы ВК Блокирует всю рекламу на сайтах Загружает торренты как

    µTorrent

    клиент
    Объеденяет все твои чаты из соц. сетей в один Проигрывает твою музыку не заходя во ВКонтакте
    Скачать и многое другое... Подробности на сайте производителя
    Информация о фильме
    Название: 24 часа на жизнь
    Оригинальное название: 24 Hours to Live

    Год выхода: 2017
    Жанр: Боевик, триллер, фэнтези
    Режиссер: Брайан Смрз
    В ролях: Рутгер Хауэр, Итан Хоук, Пол Андерсон, Лиам Каннингэм, Натали Болтт, Таня ван Граан, Хаким Кае-Казим, Сюй Цин, Эйдан Уайток, Эндрю Моргадо и другие.
    О фильме:
    Во время очередного задания погибает киллер, на совести которого много невинных жертв. Но таинственным образом он возвращается из потустороннего мира к жизни. И теперь у него есть только 24 часа, чтобы объединившись с убийцей, от руки которого он принял смерть, искупить вину и спасти свою душу.



    Страна: ЮАР, Гонконг
    Продолжительность: 01:34:07
    Перевод: Любительский (многоголосый закадровый) | RecentFilms

    Файл
    Кодек: XviD
    Качество: WEB-DLRip
    Видео: 720x304 (2.37:1), 23.976 fps, ~1844 kbps avg, 0.35 bit/pixel
    Звук:
    Аудио rus:AC3, 48 kHz, 2/0 (L,R) ch, ~192 kbps
    Субтитры: отсутствуют
    Реклама:присутствует
    Семпл

    MediaInfo

    General
    Complete name                            : F:Films24.Hours.to.Live.2017.RecentFilms24.Hours.to.Live.2017.WEB-DLRip.RecentFilms.avi
    Format                                   : AVI
    Format/Info                              : Audio Video Interleave
    File size                                : 1.35 GiB
    Duration                                 : 1h 34mn
    Overall bit rate                         : 2 046 Kbps
    Writing application                      : VirtualDubMod 1.5.10.3 (build 2550/release)
    Writing library                          : VirtualDubMod build 2550/release

    Video
    ID                                       : 0
    Format                                   : MPEG-4 Visual
    Format profile                           : Advanced Simple@L5
    Format settings, BVOP                    : 1
    Format settings, QPel                    : No
    Format settings, GMC                     : No warppoints
    Format settings, Matrix                  : Default (MPEG)
    Codec ID                                 : XVID
    Codec ID/Hint                            : XviD
    Duration                                 : 1h 34mn
    Bit rate                                 : 1 845 Kbps
    Width                                    : 720 pixels
    Height                                   : 304 pixels
    Display aspect ratio                     : 2.35:1
    Frame rate                               : 23.976 (23976/1000) fps
    Color space                              : YUV
    Chroma subsampling                       : 4:2:0
    Bit depth                                : 8 bits
    Scan type                                : Progressive
    Compression mode                         : Lossy
    Bits/(Pixel*Frame)                       : 0.352
    Stream size                              : 1.21 GiB (90%)
    Writing library                          : XviD 73

    Audio
    ID                                       : 1
    Format                                   : AC-3
    Format/Info                              : Audio Coding 3
    Mode extension                           : CM (complete main)
    Format settings, Endianness              : Big
    Codec ID                                 : 2000
    Duration                                 : 1h 34mn
    Bit rate mode                            : Constant
    Bit rate                                 : 192 Kbps
    Channel(s)                               : 2 channels
    Channel positions                        : Front: L R
    Sampling rate                            : 48.0 KHz
    Frame rate                               : 31.250 fps (1536 spf)
    Compression mode                         : Lossy
    Stream size                              : 129 MiB (9%)
    Alignment                                : Split accross interleaves
    Interleave, duration                     : 42 ms (1.00 video frame)
    Interleave, preload duration             : 500 ms



    Еще похожие »

    Как скачать?
    1. Качаем UTorrent версии 2.0 и выше отсюда
    2. После установки, жмем на ссылку Скачать торрент.
    3. Открываем его через utorrent.
    4. Ждем пока подключатся участники.
    5. Качаем.


    Комментарии о 24 часа на жизнь / 24 Hours to Live | WEB-DLRip
    Добавлять комментарии могут только зарегистрированные пользователи

    Зарегистрироваться или Войти


    Ближайшее в кино
    • Привидение дата выхода 26 апреля 2018Привидение
      Дата выхода: 26 апреля 2018
    • 1045590|Правда или действие|26 апреля 2018|200|300Правда или действие
      Дата выхода: 26 апреля 2018
    • 841470|Смешарики. Дежавю|26 апреля 2018|200|300Смешарики. Дежавю
      Дата выхода: 26 апреля 2018
    • 1046545|Танки|26 апреля 2018|200|300Танки
      Дата выхода: 26 апреля 2018
    • 1027311|Дыши во мгле|26 апреля 2018|200|300Дыши во мгле
      Дата выхода: 26 апреля 2018
    • 959260|Миссис Хайд|26 апреля 2018|200|300Миссис Хайд
      Дата выхода: 26 апреля 2018
    • 845128|Я заберу твои деньги|26 апреля 2018|200|300Я заберу твои деньги
      Дата выхода: 26 апреля 2018
    • 1112036|Лицо|26 апреля 2018|200|300Лицо
      Дата выхода: 26 апреля 2018
    • 1076322|Великолепная|26 апреля 2018|200|300Великолепная
      Дата выхода: 26 апреля 2018
    • 1110934|Золушка|28 апреля 2018|200|300Золушка
      Дата выхода: 28 апреля 2018
    • 1115701|МУЛЬТ в кино. Выпуск №74. Планета Май!|28 апреля 2018|200|300МУЛЬТ в кино. Выпуск №74. Планета Май!
      Дата выхода: 28 апреля 2018
    • 928533|Папа-мама гусь|1 мая 2018|200|300Папа-мама гусь
      Дата выхода: 1 мая 2018
    • 843649|Мстители: Война бесконечности|3 мая 2018|200|300Мстители: Война бесконечности
      Дата выхода: 3 мая 2018
    • 939785|Остров собак|3 мая 2018|200|300Остров собак
      Дата выхода: 3 мая 2018
    • 905031|Собибор|3 мая 2018|200|300Собибор
      Дата выхода: 3 мая 2018
    Вверх