• Игры для PS3
  • Игры для XBOX360
  • Игры для PC
  • Игры для PS2
  • Игры для PSP
  • Для телефонов
  • Музыка
  • Книги/Журналы
  • Обои
  •  
    Опрос
    Откуда Вы о нас узнали?
      0
    • От знакомых2,1,false,300,full
    • Из социальных сетей2,2,false,300,full
    • Из поисковых систем2,3,false,300,full
    • Другое2,4,false,300,full
    Статистика
    Загрузка...
    Легенды завтрашнего дня / DC's Legends of Tomorrow [Сезон 03 | 01-09 серии из 17] | WEBRip
    Статус  Проверено
    В закладки
    Модератор: Max

    Легенды завтрашнего дня / DC's Legends of Tomorrow [Сезон 03 | 01-09 серии из 17] | WEBRip [Сериалы 2017] скачать торрентом/torrent бесплатно

    Год выхода
    Категории
    Язык
    Закачал
    Аноним | 07 декабря 2017 в 09ч 03м 33с
    Раздел
    Отзывов
    0
    Раздают: 8 Качают: 65 Скачали: 8 Размер: 4.44 GB
    Инфо о раздаче | Благодарности |
    0/5
    0
    Поддержи нас — расскажи друзьям!
    Orbitum
    Новый интернет-браузер Быстрее загружает сайты Экономит интернет—трафик Меняет оформление страницы ВК Блокирует всю рекламу на сайтах Загружает торренты как

    µTorrent

    клиент
    Объеденяет все твои чаты из соц. сетей в один Проигрывает твою музыку не заходя во ВКонтакте
    Скачать и многое другое... Подробности на сайте производителя
    Легенды завтрашнего дня / DC"s Legends of Tomorrow

    Страна: США [img]http://st.kp.yandex.net/images/flags/flag-1.gif[/img]
    Производство: DC Entertainment, Warner Bros. Television, Bonanza Productions, Berlanti Productions
    Год выпуска: 2017
    Сезон: 3
    Жанр:  триллер
    Продолжительность: х ~00:43:00

    Режиссеры: Роб Сайденгланц, Мейрзи Альмас, Дэвид Геддес
    Авторы сценария: Рэй Утамачитт, Грэйн Годфри, Фил Клеммер

    В ролях: Виктор Гарбер, Брэндон Рут, Артур Дарвилл, Кейти Лотц, Франц Драмех, Эми Пембертон, Доминик Пёрселл, Сиара Рене, Вентворт Миллер

    Описание: Увидев будущее, которого обязательно нужно избежать, Рип Хантер, путешественник во времени, собирает команду из героев и злодеев, чтобы противостоять смертельной угрозе. На кону стоит не только наша планета, но и всё время в целом. Сможет ли эта команда победить бессмертное зло, абсолютно непохожее на то, что они видели раньше..?



    Перевод: Любительский (многоголосый, закадровый) | КОЛДФИЛЬМ
    Субтитры: нет

    Качество: WEBRip
    Формат: АVI
    Видео кодек: XviD
    Аудио кодек: АС3
    Видео: 720x400 (16:9), 29.970 fps, XviD ~1 500 kbps avg
    Аудио: 48.0 kHz, AC3 Dolby Digital, 2/0 (L,R) ch, ~192 kbps

    Дата премьеры (мир): 10 октября 2017

    [img]http://s017.radikal.ru/i427/1609/a3/d54ac8556bbd.gif[/img]

    Media Info
    General
    Complete name                  : DC"s Legends of Tomorrow 3DC_Legends_Of_Tomorrow_S03E01.avi
    Format                         : AVI
    Format/Info                    : Audio Video Interleave
    File size                      : 515 MiB
    Duration                       : 42mn 30s
    Overall bit rate               : 1 693 Kbps
    Writing application            : VirtualDubMod 1.5.10.2 (build 2540/release)
    Writing library                : VirtualDubMod build 2540/release

    Video
    ID                             : 0
    Format                         : xvid
    Codec ID                       : xvid
    Duration                       : 42mn 30s
    Bit rate                       : 1 490 Kbps
    Width                          : 720 pixels
    Height                         : 400 pixels
    Display aspect ratio           : 16:9
    Frame rate                     : 29.970 fps
    Bits/(Pixel*Frame)             : 0.173
    Stream size                    : 453 MiB (88%)

    Audio
    ID                             : 1
    Format                         : AC-3
    Format/Info                    : Audio Coding 3
    Mode extension                 : CM (complete main)
    Format settings, Endianness    : Big
    Codec ID                       : 2000
    Duration                       : 42mn 30s
    Bit rate mode                  : Constant
    Bit rate                       : 192 Kbps
    Channel(s)                     : 2 channels
    Channel positions              : Front: L R
    Sampling rate                  : 48.0 KHz
    Compression mode               : Lossy
    Stream size                    : 58.4 MiB (11%)
    Alignment                      : Split accross interleaves
    Interleave, duration           : 33 ms (1.00 video frame)
    Interleave, preload duration   : 500 ms


    Еще похожие »

    Как скачать?
    1. Качаем UTorrent версии 2.0 и выше отсюда
    2. После установки, жмем на ссылку Скачать торрент.
    3. Открываем его через utorrent.
    4. Ждем пока подключатся участники.
    5. Качаем.


    Комментарии о Легенды завтрашнего дня / DC's Legends of Tomorrow [Сезон 03 | 01-09 серии из 17] | WEBRip
    Добавлять комментарии могут только зарегистрированные пользователи

    Зарегистрироваться или Войти


    Ближайшее в кино
    • Богема дата выхода 24 февраля 2018Богема
      Дата выхода: 24 февраля 2018
    • Чёрная Пантера дата выхода 26 февраля 2018Чёрная Пантера
      Дата выхода: 26 февраля 2018
    • Сезанн. Портреты жизни дата выхода 28 февраля 2018Сезанн. Портреты жизни
      Дата выхода: 28 февраля 2018
    • За гранью реальности дата выхода 1 марта 2018За гранью реальности
      Дата выхода: 1 марта 2018
    • Довлатов дата выхода 1 марта 2018Довлатов
      Дата выхода: 1 марта 2018
    • Погружение дата выхода 1 марта 2018Погружение
      Дата выхода: 1 марта 2018
    • Купи меня дата выхода 1 марта 2018Купи меня
      Дата выхода: 1 марта 2018
    • Со дна вершины дата выхода 1 марта 2018Со дна вершины
      Дата выхода: 1 марта 2018
    • Мэри и ведьмин цветок дата выхода 1 марта 2018Мэри и ведьмин цветок
      Дата выхода: 1 марта 2018
    • Дрис ван Нотен дата выхода 1 марта 2018Дрис ван Нотен
      Дата выхода: 1 марта 2018
    • Поднять якоря! дата выхода 1 марта 2018Поднять якоря!
      Дата выхода: 1 марта 2018
    • Излом времени дата выхода 8 марта 2018Излом времени
      Дата выхода: 8 марта 2018
    • Пассажир дата выхода 8 марта 2018Пассажир
      Дата выхода: 8 марта 2018
    • Я худею дата выхода 8 марта 2018Я худею
      Дата выхода: 8 марта 2018
    • Кавалерия дата выхода 8 марта 2018Кавалерия
      Дата выхода: 8 марта 2018
    Вверх