• Игры для PS3
  • Игры для XBOX360
  • Игры для PC
  • Игры для PS2
  • Игры для PSP
  • Для телефонов
  • Музыка
  • Книги/Журналы
  • Обои
  •  
    Опрос
    Откуда Вы о нас узнали?
      0
    • От знакомых2,1,false,300,full
    • Из социальных сетей2,2,false,300,full
    • Из поисковых систем2,3,false,300,full
    • Другое2,4,false,300,full
    Статистика
    Загрузка...
    Беглец [Серии 01-20 из 20] | HDTVRip
    Статус  Проверено
    В закладки
    Модератор: Max

    Беглец [Серии 01-20 из 20] | HDTVRip [Сериалы 2017] скачать торрентом/torrent бесплатно

    Год выхода
    Категории
    Язык
    Закачал
    Аноним | 07 декабря 2017 в 12ч 39м 17с
    Раздел
    Отзывов
    0
    Раздают: 1 Качают: 1 Скачали: 1 Размер: 2.21 GB
    Файлы (20) | Благодарности | Хэш код |
    0/5
    0
    Поддержи нас — расскажи друзьям!
    Orbitum
    Новый интернет-браузер Быстрее загружает сайты Экономит интернет—трафик Меняет оформление страницы ВК Блокирует всю рекламу на сайтах Загружает торренты как

    µTorrent

    клиент
    Объеденяет все твои чаты из соц. сетей в один Проигрывает твою музыку не заходя во ВКонтакте
    Скачать и многое другое... Подробности на сайте производителя
    Информация о фильме
    Оригинальное название: Беглец
    Год выпуска: 2017
    Жанр:  Комедия, криминал
    Режиссер: Михаил Жерневский
    В ролях: Иван Охлобыстин, Семён Стругачёв, Грегори-Саид Багов, Денис Доронин, Марина Кондратьева, Виктория Полторак, Григорий Сиятвинда, Ростислав Бершауэр, Максим Лагашкин, Мария Кудрявцева

    О фильме:
    Миша — профессиональный аферист, который подставил своего босса и «кинул» его на большие деньги. Чтобы избежать смертельно опасных последствий, он сбегает в родной город. В первый же день Миша вступается за свою давнюю любовь Наташу, ссорится с главным криминальным авторитетом по кличке Дон и случайно устраивается на работу в полицию. Теперь он сам ловит преступников, попутно спасаясь от киллера и пытаясь наладить личную жизнь.



    Страна: Россия
    Студия: КПМ Продакшн
    Продолжительность: 20 x ~ 00:25:00
    Перевод: Не требуется

    Файл
    Формат: MP4
    Качество: HDTVRip | КПК
    Видео: MPEG-4 AVC (x264), 640x360, ~500 kbps, 25.000 fps
    Аудио: AAC LC, 48.0 KHz, 2 ch, 128 Kbps
    Субтитры: Нет

    Семпл



    MI
    Complete name               : F:КИНОBeglec.S01.2016.AVC.HDTVRip.KPK.GFBeglec.s01e04.2016.AVC.HDTVRip.KPK.GF.mp4
    Format                      : MPEG-4
    Codec ID                    : M4V  (isom/iso2/avc1)
    File size                   : 113 MiB
    Duration                    : 24 min 55 s
    Overall bit rate mode       : Variable
    Overall bit rate            : 634 kb/s
    Writing application         : Lavf53.19.0

    Video
    ID                          : 1
    Format                      : AVC
    Format/Info                 : Advanced Video Codec
    Format profile              : High@L4.1
    Format settings, CABAC      : Yes
    Format settings, RefFrames  : 8 frames
    Codec ID                    : avc1
    Codec ID/Info               : Advanced Video Coding
    Duration                    : 24 min 55 s
    Bit rate                    : 500 kb/s
    Width                       : 640 pixels
    Height                      : 360 pixels
    Display aspect ratio        : 16:9
    Frame rate mode             : Constant
    Frame rate                  : 25.000 FPS
    Color space                 : YUV
    Chroma subsampling          : 4:2:0
    Bit depth                   : 8 bits
    Scan type                   : Progressive
    Bits/(Pixel*Frame)          : 0.087
    Stream size                 : 89.1 MiB (79%)
    Writing library             : x264 core 148 r2638 7599210
    Encoding settings           : cabac=1 / ref=8 / deblock=1:-1:-1 / analyse=0x3:0x133 / me=umh / subme=10 / psy=1 / psy_rd=1.00:0.00 / mixed_ref=1 / me_range=24 / chroma_me=1 / trellis=2 / 8x8dct=1 / cqm=0 / deadzone=21,11 / fast_pskip=1 / chroma_qp_offset=-2 / threads=6 / lookahead_threads=1 / sliced_threads=0 / nr=0 / decimate=1 / interlaced=0 / bluray_compat=0 / constrained_intra=0 / bframes=8 / b_pyramid=2 / b_adapt=2 / b_bias=0 / direct=3 / weightb=1 / open_gop=0 / weightp=2 / keyint=250 / keyint_min=126 / scenecut=40 / intra_refresh=0 / rc_lookahead=40 / rc=2pass / mbtree=1 / bitrate=500 / ratetol=1.0 / qcomp=0.60 / qpmin=0 / qpmax=69 / qpstep=4 / cplxblur=20.0 / qblur=0.5 / ip_ratio=1.40 / aq=1:1.00
    Menus                       : 3

    Audio
    ID                          : 2
    Format                      : AAC
    Format/Info                 : Advanced Audio Codec
    Format profile              : LC
    Codec ID                    : 40
    Duration                    : 24 min 55 s
    Bit rate mode               : Variable
    Bit rate                    : 128 kb/s
    Channel(s)                  : 2 channels
    Channel positions           : Front: L R
    Sampling rate               : 48.0 kHz
    Frame rate                  : 46.875 FPS (1024 SPF)
    Compression mode            : Lossy
    Stream size                 : 22.8 MiB (20%)
    Default                     : Yes
    Alternate group             : 1
    Menus                       : 3
    Еще похожие »

    Как скачать?
    1. Качаем UTorrent версии 2.0 и выше отсюда
    2. После установки, жмем на ссылку Скачать торрент.
    3. Открываем его через utorrent.
    4. Ждем пока подключатся участники.
    5. Качаем.


    Комментарии о Беглец [Серии 01-20 из 20] | HDTVRip
    Добавлять комментарии могут только зарегистрированные пользователи

    Зарегистрироваться или Войти


    Ближайшее в кино
    • Звёздные войны: Последние джедаи дата выхода 14 декабря 2017Звёздные войны: Последние джедаи
      Дата выхода: 14 декабря 2017
    • Полуночный человек дата выхода 14 декабря 2017Полуночный человек
      Дата выхода: 14 декабря 2017
    • Виктория и Абдул дата выхода 14 декабря 2017Виктория и Абдул
      Дата выхода: 14 декабря 2017
    • Близкие дата выхода 14 декабря 2017Близкие
      Дата выхода: 14 декабря 2017
    • Девушка с косой дата выхода 14 декабря 2017Девушка с косой
      Дата выхода: 14 декабря 2017
    • Новогодний переполох дата выхода 14 декабря 2017Новогодний переполох
      Дата выхода: 14 декабря 2017
    • Санта и компания дата выхода 14 декабря 2017Санта и компания
      Дата выхода: 14 декабря 2017
    • Все пары делают это дата выхода 14 декабря 2017Все пары делают это
      Дата выхода: 14 декабря 2017
    • Пока я жив дата выхода 18 декабря 2017Пока я жив
      Дата выхода: 18 декабря 2017
    • Джуманджи: Зов джунглей дата выхода 21 декабря 2017Джуманджи: Зов джунглей
      Дата выхода: 21 декабря 2017
    • Ёлки новые дата выхода 21 декабря 2017Ёлки новые
      Дата выхода: 21 декабря 2017
    • Отступник дата выхода 21 декабря 2017Отступник
      Дата выхода: 21 декабря 2017
    • Фердинанд дата выхода 21 декабря 2017Фердинанд
      Дата выхода: 21 декабря 2017
    • Новизна дата выхода 21 декабря 2017Новизна
      Дата выхода: 21 декабря 2017
    • Вечеринка дата выхода 21 декабря 2017Вечеринка
      Дата выхода: 21 декабря 2017
    Вверх