• Игры для PS4
  • Игры для PS3
  • Игры для XBOX360
  • Игры для PC
  • Игры для PS2
  • Игры для PSP
  • Для телефонов
  • Музыка
  • Книги / Журналы
  • Обои
  • Опрос
    Откуда Вы о нас узнали?
      0
    • От знакомых2,1,false,300,full
    • Из социальных сетей2,2,false,300,full
    • Из поисковых систем2,3,false,300,full
    • Другое2,4,false,300,full
    Статистика
    Всего онлайн -
    Гостей -
    Пользователей -
    Короли трекера
    Благодарности () Закрыть
    Год выпуска: 2006
    Страна: США
    Жанр:  Комедия
    Продолжительность: 22 х 00:21:00, 1 х 00:28:00

    Перевод: Профессиональный (многоголосый), озвучено телекомпанией "Рен-ТВ"; трансляция на канале 2x2

    Режиссёр: Грег Гарсиа
    В ролях: Джейсон Ли, Итан Сапли, Джейми Прессли, Эдди Стиплз, Надин Веласкес и другие

    Описание: Жизнь Эрла, мелкого проходимца районного масштаба, полна ошибок и неправильных решений. Сразу после выигрыша джек-пота в небольшой лотерее, его сбивает машина, и он теряет выигравший билет. В больнице на него снисходит озарение: все дело в карме и неприятности преследуют его потому, что он сам нескончаемый источник неприятностей для окружающих.

    Герой решает круто изменить свою судьбу. Он хочет исправить все неправильное, что он сделал со времен своих причуд в начальной школе, когда изощренно измывался над одноклассниками и тащил все, что попадалось под руку. С этой целью он составляет подробный список своих разнокалиберных проказ и преисполняется решимости разыскать всех, кому он когда-либо сделал недоброе и компенсировать зло, чего бы это ни ему, ни когда-то от него потерпевшим ни стоило.



    Качество: WEB-DL 1080p (AMAZON)
    Контейнер: MKV
    Видео: MPEG-4 AVC, 1920x1080 [16:9], 25.000 fps, ~ 10000 Kbps
    Аудио 1: [Русский] AC3, 48 kHz, 2 ch, 192 Kbps
    Аудио 2: [Английский] AC3, 48 kHz, 2 ch, 192 Kbps
    Субтитры: отсутствуют

    Релиз
    Релиз - BenderBEST

    • Видеоряд от AMAZON
    • Частота кадров видео изменена с 23,976 fps на 25 fps для того, чтобы не перетягивать дубляж во избежание искажений голосов актёров озвучки.
    • Благодарим за запись с последних повторов 2х2 Justin, #Antisnl#, BenderBEST
    • Работа со звуком BenderBESTСвернуть


    MediaInfo

    Формат                                   : Matroska
    Версия формата                           : Version 4 / Version 2
    Размер файла                             : 1,50 Гбайт
    Продолжительность                        : 20 м.
    Режим общего битрейта                    : Постоянный
    Общий поток                              : 10,5 Мбит/сек
    Название фильма                          : ReJliz by BenderBEST & Justin
    Дата кодирования                         : UTC 2016-09-27 14:12:18
    Программа кодирования                    : mkvmerge v6.9.1 ("Blue Panther") 32bit built on Apr 18 2014 18:15:44
    Библиотека кодирования                   : libebml v1.3.0 + libmatroska v1.4.1

    Видео
    Идентификатор                            : 1
    Формат                                   : AVC
    Формат/Информация                        : Advanced Video Codec
    Профиль формата                          : High@L4
    Параметр CABAC формата                   : Да
    Параметр ReFrames формата                : 4 кадра
    Идентификатор кодека                     : V_MPEG4/ISO/AVC
    Продолжительность                        : 20 м.
    Вид битрейта                             : Постоянный
    Битрейт                                  : 10000 Кбит/сек
    Ширина                                   : 1920 пикселей
    Высота                                   : 1080 пикселей
    Соотношение сторон                       : 16:9
    Режим частоты кадров                     : Постоянный
    Частота кадров                           : 25,000 кадров/сек
    Цветовое пространство                    : YUV
    Субдискретизация насыщенности            : 4:2:0
    Битовая глубина                          : 8 бит
    Тип развёртки                            : Прогрессивная
    Бит/(Пиксели*Кадры)                      : 0.193
    Размер потока                            : 1,42 Гбайт (94%)
    Язык                                     : English
    Default                                  : Да
    Forced                                   : Да
    Цветовой диапазон                        : Limited
    Основные цвета                           : BT.709
    Характеристики трансфера                 : BT.709
    Коэффициенты матрицы                     : BT.709

    Аудио #1
    Идентификатор                            : 2
    Формат                                   : AC-3
    Формат/Информация                        : Audio Coding 3
    Расширение режима                        : CM (complete main)
    Параметр Endianness формата              : Big
    Идентификатор кодека                     : A_AC3
    Продолжительность                        : 20 м.
    Вид битрейта                             : Постоянный
    Битрейт                                  : 192 Кбит/сек
    Каналы                                   : 2 канала
    Расположение каналов                     : Front: L R
    Частота                                  : 48,0 КГц
    Частота кадров                           : 31,250 кадров/сек (1536 spf)
    Метод сжатия                             : С потерями
    Размер потока                            : 28,0 Мбайт (2%)
    Язык                                     : Russian
    Default                                  : Да
    Forced                                   : Да

    Аудио #2
    Идентификатор                            : 3
    Формат                                   : AC-3
    Формат/Информация                        : Audio Coding 3
    Расширение режима                        : CM (complete main)
    Параметр Endianness формата              : Big
    Идентификатор кодека                     : A_AC3
    Продолжительность                        : 20 м.
    Вид битрейта                             : Постоянный
    Битрейт                                  : 192 Кбит/сек
    Каналы                                   : 2 канала
    Расположение каналов                     : Front: L R
    Частота                                  : 48,0 КГц
    Частота кадров                           : 31,250 кадров/сек (1536 spf)
    Метод сжатия                             : С потерями
    Размер потока                            : 28,0 Мбайт (2%)
    Язык                                     : English
    Default                                  : Нет
    Forced                                   : Нет
    Свернуть


    Похожие раздачи Искать похожие
    Инструкция по скачиванию
     1  Качаем uTorrent версии 2.0 и выше
     2  После установки, жмем выше под постером на ссылку Скачать [MediaGet] или Скачать .torrent
     3  Открываем скачанный файл через соответствующий клиент: MediaGet или uTorrent
     4  Ждем пока подключатся участники
     5  Качаем
    Комментарии о  Меня зовут Эрл / My name is Earl [Сезон 02] | WEB-DL 1080p 
    Ближайшее в кино
    Вверх