• Игры для PS4
  • Игры для PS3
  • Игры для XBOX360
  • Игры для PC
  • Игры для PS2
  • Игры для PSP
  • Для телефонов
  • Музыка
  • Книги/Журналы
  • Обои
  •  
    Опрос
    Удобен ли сайт в использовании?
      0
    • Очень удобен, все понятно1,1,false,300,full
    • Удобен1,2,false,300,full
    • Средне1,3,false,300,full
    • Неудобен, трудно ориентироваться1,4,false,300,full
    • Совсем неудобен1,5,false,300,full
    Статистика
    Загрузка...
    Из Лос-Анджелеса в Вегас / LA to Vegas [Сезон 01 | 01 серия из 12] | WEBRip 720p
    Статус  Проверено
    В закладки
    Модератор: Max

    Из Лос-Анджелеса в Вегас / LA to Vegas [Сезон 01 | 01 серия из 12] | WEBRip 720p [Сериалы 2017] скачать торрентом/torrent бесплатно

    Год выхода
    Категории
    Язык
    Закачал
    Аноним | 27 декабря 2017 в 11ч 14м 48с
    Раздел
    Отзывов
    0
    Раздают: 2 Качают: 3 Скачали: 24 Размер: 707.66 MB
    Инфо о раздаче | Благодарности |
    0/5
    0
    0 5 0
    Поддержи нас — расскажи друзьям!
    Orbitum
    Новый интернет-браузер Быстрее загружает сайты Экономит интернет—трафик Меняет оформление страницы ВК Блокирует всю рекламу на сайтах Загружает торренты как

    µTorrent

    клиент
    Объеденяет все твои чаты из соц. сетей в один Проигрывает твою музыку не заходя во ВКонтакте
    Скачать и многое другое... Подробности на сайте производителя
    Название: Из Лос-Анджелеса в Вегас
    Оригинальное название: LA to Vegas  
    Год выхода: 2017
    Жанр: комедия
    Режиссеры: Стивен Левитан, Линда Мендоса, Джон Ригги

    В ролях: Петер Стормаре, Дилан МакДермотт, Амир Талай, Нэйтан Ли Грэхэм, Кимберли Матула, Оливия Маклин, Эдвин Хэбакон и др.

    О сериале: Действие сериала разворачивается на борту самолёта, который каждый уикэнд совершает перелёт из Лос-Анджелеса в Лас-Вегас, и вращается вокруг его экипажа и пассажиров.

    Производство: США
    Продолжительность: ~00:20:00
    Перевод: Любительский (многоголосый закадровый) BaibaKo
    Субтитры: Отсутствуют



    Файл
    Формат: MKV
    Качество: WEBRip 720p

    Видео: MPEG-4 AVC, ~ 3500 Кбит/с, 1280x720
    Аудио RUS: [img]http://s019.radikal.ru/i638/1711/71/d96694063f0f.gif[/img] 48 kHz, AC3, 2 ch, ~384.00 kbps avg
    Аудио ENG: [img]http://s011.radikal.ru/i317/1711/de/b477759edf3d.gif[/img] 48 kHz, AC3, 2 ch, ~384.00 kbps avg

    [img]http://s010.radikal.ru/i311/1601/79/c2f9dd18d54f.gif[/img][img]http://s019.radikal.ru/i604/1512/b1/79ff3072aa5a.gif[/img]
    [img]http://s019.radikal.ru/i634/1711/a2/880166265ec1.png[/img]

    MediaInfo
    Общее
    Уникальный идентификатор                 : 239049801134177785925007893861507811512 (0xB3D751283FF0A17AAA15354A590848B8)
    Полное имя                               : LA.to.Vegas.s01e01.HD720p.WEBRip.Rus.Eng.BaibaKo.tv.mkv
    Формат                                   : Matroska
    Версия формата                           : Version 4 / Version 2
    Размер файла                             : 708 Мбайт
    Продолжительность                        : 23 м. 22 с.
    Общий поток                              : 4231 Кбит/сек
    Дата кодирования                         : UTC 2017-12-26 00:24:39
    Программа кодирования                    : mkvmerge v8.5.2 ("Crosses") 64bit
    Библиотека кодирования                   : libebml v1.3.3 + libmatroska v1.4.4

    Видео
    Идентификатор                            : 1
    Формат                                   : AVC
    Формат/Информация                        : Advanced Video Codec
    Профиль формата                          : High@L3.1
    Настройки формата                        : CABAC / 4 Ref Frames
    Параметр CABAC формата                   : Да
    Параметр RefFrames формата               : 4 кадра
    Идентификатор кодека                     : V_MPEG4/ISO/AVC
    Продолжительность                        : 23 м. 22 с.
    Битрейт                                  : 3461 Кбит/сек
    Ширина                                   : 1280 пикселей
    Высота                                   : 720 пикселей
    Соотношение сторон                       : 16:9
    Режим частоты кадров                     : Постоянный
    Частота кадров                           : 23,976 (23976/1000) кадра/сек
    Частота кадров в оригинале               : 23,976 (24000/1001) кадра/сек
    Цветовое пространство                    : YUV
    Субдискретизация насыщенности            : 4:2:0
    Битовая глубина                          : 8 бит
    Тип развёртки                            : Прогрессивная
    Бит/(Пиксели*Кадры)                      : 0.157
    Размер потока                            : 579 Мбайт (82%)
    Библиотека кодирования                   : x264 core 152 r2851 ba24899
    Настройки программы                      : cabac=1 / ref=3 / deblock=1:0:0 / analyse=0x3:0x113 / me=hex / subme=7 / psy=1 / psy_rd=1.00:0.00 / mixed_ref=1 / me_range=16 / chroma_me=1 / trellis=1 / 8x8dct=1 / cqm=0 / deadzone=21,11 / fast_pskip=1 / chroma_qp_offset=-2 / threads=22 / lookahead_threads=3 / sliced_threads=0 / nr=0 / decimate=1 / interlaced=0 / bluray_compat=0 / constrained_intra=0 / bframes=3 / b_pyramid=2 / b_adapt=1 / b_bias=0 / direct=1 / weightb=1 / open_gop=0 / weightp=2 / keyint=240 / keyint_min=23 / scenecut=40 / intra_refresh=0 / rc_lookahead=40 / rc=crf / mbtree=1 / crf=18.0 / qcomp=0.60 / qpmin=0 / qpmax=69 / qpstep=4 / ip_ratio=1.40 / aq=1:1.00
    Default                                  : Нет
    Forced                                   : Нет

    Аудио #1
    Идентификатор                            : 2
    Формат                                   : AC-3
    Формат/Информация                        : Audio Coding 3
    Идентификатор кодека                     : A_AC3
    Продолжительность                        : 23 м. 22 с.
    Вид битрейта                             : Постоянный
    Битрейт                                  : 384 Кбит/сек
    Каналы                                   : 2 канала
    Расположение каналов                     : Front: L R
    Частота                                  : 48,0 КГц
    Частота кадров                           : 31,250 кадров/сек (1536 SPF)
    Битовая глубина                          : 16 бит
    Метод сжатия                             : С потерями
    Размер потока                            : 64,2 Мбайт (9%)
    Язык                                     : Russian
    Default                                  : Да
    Forced                                   : Нет

    Аудио #2
    Идентификатор                            : 3
    Формат                                   : AC-3
    Формат/Информация                        : Audio Coding 3
    Идентификатор кодека                     : A_AC3
    Продолжительность                        : 23 м. 22 с.
    Вид битрейта                             : Постоянный
    Битрейт                                  : 384 Кбит/сек
    Каналы                                   : 2 канала
    Расположение каналов                     : Front: L R
    Частота                                  : 48,0 КГц
    Частота кадров                           : 31,250 кадров/сек (1536 SPF)
    Битовая глубина                          : 16 бит
    Метод сжатия                             : С потерями
    Размер потока                            : 64,2 Мбайт (9%)
    Язык                                     : English
    Default                                  : Нет
    Forced                                   : Нет


    Скриншоты
    [img]http://i102.fastpic.ru/big/2017/1227/4b/1ba1381cd86f41abaffab606d9c7424b.jpg[/img][img]http://i102.fastpic.ru/big/2017/1227/b2/648a1e783394286ddb4c8cf6b279cab2.jpg[/img][img]http://i102.fastpic.ru/big/2017/1227/ab/34389471ad26d238666f271689d2c1ab.jpg[/img][img]http://i102.fastpic.ru/big/2017/1227/85/1885d2bd0f6e4256f814d6e5f0448c85.jpg[/img][img]http://i102.fastpic.ru/big/2017/1227/a0/d7ff865772ab3174c0b178fec4872ea0.jpg[/img][img]http://i102.fastpic.ru/big/2017/1227/bb/eebe78a9f487b9c4e73e529ab33e7dbb.jpg[/img]

    Как скачать?
    1. Качаем UTorrent версии 2.0 и выше отсюда
    2. После установки, жмем на ссылку Скачать торрент.
    3. Открываем его через utorrent.
    4. Ждем пока подключатся участники.
    5. Качаем.


    Комментарии о Из Лос-Анджелеса в Вегас / LA to Vegas [Сезон 01 | 01 серия из 12] | WEBRip 720p
    Добавлять комментарии могут только зарегистрированные пользователи

    Зарегистрироваться или Войти


    Ближайшее в кино
    • МУЛЬТ в кино. Выпуск №77. Команда мечты дата выхода 23 июня 2018МУЛЬТ в кино. Выпуск №77. Команда мечты
      Дата выхода: 23 июня 2018
    • 1162775|Кто украл Banksy|25 июня 2018|200|300Кто украл Banksy
      Дата выхода: 25 июня 2018
    • 1031219|План побега 2|28 июня 2018|200|300План побега 2
      Дата выхода: 28 июня 2018
    • 938461|Убийца 2. Против всех|28 июня 2018|200|300Убийца 2. Против всех
      Дата выхода: 28 июня 2018
    • 912012|Распрекрасный принц|28 июня 2018|200|300Распрекрасный принц
      Дата выхода: 28 июня 2018
    • 1015040|Во власти стихии|28 июня 2018|200|300Во власти стихии
      Дата выхода: 28 июня 2018
    • 759874|Ты водишь!|28 июня 2018|200|300Ты водишь!
      Дата выхода: 28 июня 2018
    • 1077873|Книжный клуб|28 июня 2018|200|300Книжный клуб
      Дата выхода: 28 июня 2018
    • 1047708|Инсомния|28 июня 2018|200|300Инсомния
      Дата выхода: 28 июня 2018
    • 1026748|Джим Пуговка и машинист Лукас|28 июня 2018|200|300Джим Пуговка и машинист Лукас
      Дата выхода: 28 июня 2018
    • 1038941|Осторожно: Грамп!|28 июня 2018|200|300Осторожно: Грамп!
      Дата выхода: 28 июня 2018
    • 977767|50 весенних дней|28 июня 2018|200|30050 весенних дней
      Дата выхода: 28 июня 2018
    • 1162806|Идеальный муж|4 июля 2018|200|300Идеальный муж
      Дата выхода: 4 июля 2018
    • 935940|Человек-муравей и Оса|5 июля 2018|200|300Человек-муравей и Оса
      Дата выхода: 5 июля 2018
    • 977435|Невидимка|5 июля 2018|200|300Невидимка
      Дата выхода: 5 июля 2018
    Вверх