• Игры для PS4
  • Игры для PS3
  • Игры для XBOX360
  • Игры для PC
  • Игры для PS2
  • Игры для PSP
  • Для телефонов
  • Музыка
  • Книги / Журналы
  • Обои
  • Опрос
    Откуда Вы о нас узнали?
      0
    • От знакомых2,1,false,300,full
    • Из социальных сетей2,2,false,300,full
    • Из поисковых систем2,3,false,300,full
    • Другое2,4,false,300,full
    Статистика
    Всего онлайн -
    Гостей -
    Пользователей -
    Короли трекера
    Благодарности () Закрыть
    Информация о фильме
    Название: Атлантида
    Оригинальное название: Cold Skin
    Год выхода: 2017
    Жанр: ужасы, фантастика, триллер, приключения
    Режиссер: Ксавье Жанс
    В ролях: Рэй Стивенсон, Дэвид Оукс, Аура Гарридо, Уинслоу Иваки, Джон Бенфилд, Бен Темпле, Иван Гонсалес, Алехандро Род, Жюльен Блашке, Дамиан Монтесдеока

    О фильме:
    После длительного плавания молодой метеоролог Френд прибывает на затерянный в океане остров принять годичную вахту на метеостанции. На острове оказывается лишь суровый и немногословный смотритель маяка Грюнер. Френд довольно быстро понимает, что Грюнер что-то скрывает, старый метеоролог попал в какую-то передрягу, а остров кажется необитаемым только на первый взгляд.



    Страна: Испания, Франция
    Продолжительность: 01:42:06
    Перевод: Профессиональный (дублированный) iTunes

    Файл
    Формат: MKV
    Видео: 1920x804 at 25.000 fps, MPEG-4 AVC, ~4519 kbps avg
    Аудио#1: Russian: 48 kHz, AC3, 3/2 (L,C,R,l,r) + LFE ch, ~384.00 kbps avg
    Cубтитры: нет

    Сэмпл

    MediaInfo
    General
    Unique ID                                : 228530329211031740521524713187249421181 (0xABED5725F32E4F129368B56E46FAFB7D)
    Complete name                            : Atlantida.2017.1080p.WEB-DL.Rus.mkv
    Format                                   : Matroska
    Format version                           : Version 2
    File size                                : 3.50 GiB
    Duration                                 : 1 h 42 min
    Overall bit rate                         : 4 905 kb/s
    Encoded date                             : UTC 2018-01-02 21:05:22
    Writing application                      : mkvmerge v8.3.0 ("Over the Horizon") 64bit
    Writing library                          : libebml v1.3.1 + libmatroska v1.4.2

    Video
    ID                                       : 1
    Format                                   : AVC
    Format/Info                              : Advanced Video Codec
    Format profile                           : High@L4
    Format settings                          : CABAC / 5 Ref Frames
    Format settings, CABAC                   : Yes
    Format settings, RefFrames               : 5 frames
    Codec ID                                 : V_MPEG4/ISO/AVC
    Duration                                 : 1 h 42 min
    Bit rate                                 : 4 519 kb/s
    Width                                    : 1 920 pixels
    Height                                   : 804 pixels
    Display aspect ratio                     : 2.40:1
    Frame rate mode                          : Constant
    Frame rate                               : 25.000 FPS
    Color space                              : YUV
    Chroma subsampling                       : 4:2:0
    Bit depth                                : 8 bits
    Scan type                                : Progressive
    Bits/(Pixel*Frame)                       : 0.117
    Stream size                              : 3.22 GiB (92%)
    Language                                 : English
    Default                                  : Yes
    Forced                                   : No
    Color range                              : Limited
    Color primaries                          : BT.709
    Transfer characteristics                 : BT.709
    Matrix coefficients                      : BT.709

    Audio
    ID                                       : 2
    Format                                   : AC-3
    Format/Info                              : Audio Coding 3
    Codec ID                                 : A_AC3
    Duration                                 : 1 h 42 min
    Bit rate mode                            : Constant
    Bit rate                                 : 384 kb/s
    Channel(s)                               : 6 channels
    Channel positions                        : Front: L C R, Side: L R, LFE
    Sampling rate                            : 48.0 kHz
    Frame rate                               : 31.250 FPS (1536 SPF)
    Bit depth                                : 16 bits
    Compression mode                         : Lossy
    Stream size                              : 280 MiB (8%)
    Language                                 : Russian
    Service kind                             : Complete Main
    Default                                  : Yes
    Forced                                   : No

    Menu
    00:00:00.000                             : en:Глава 1
    00:06:53.880                             : en:Глава 2
    00:13:00.800                             : en:Глава 3
    00:18:26.480                             : en:Глава 4
    00:23:07.080                             : en:Глава 5
    00:29:40.840                             : en:Глава 6
    00:35:34.280                             : en:Глава 7
    00:42:33.960                             : en:Глава 8
    00:50:41.880                             : en:Глава 9
    00:56:30.120                             : en:Глава 10
    01:05:03.080                             : en:Глава 11
    01:12:06.000                             : en:Глава 12
    01:17:44.480                             : en:Глава 13
    01:25:23.160                             : en:Глава 14Свернуть


    Скриншоты
    [screen]http://img12.lostpic.net/2018/01/03/382e9fa30f4b37696d8b8f6290834ab2.png[/screen][screen]http://img12.lostpic.net/2018/01/03/be471c325e62d135581e44d7ce652f3d.png[/screen]
    [screen]http://img12.lostpic.net/2018/01/03/43ae62b4f69009e4395ae3593efd51e0.png[/screen][screen]http://img12.lostpic.net/2018/01/03/07bc2e683004aae50941309570c618eb.png[/screen]
    [screen]http://img12.lostpic.net/2018/01/03/f8c0fcd982c0b33afefd5b09bd7fffe0.png[/screen][screen]http://img12.lostpic.net/2018/01/03/b9358d3e5f3e887e4e9a314fe515f403.png[/screen]
    [screen]http://img12.lostpic.net/2018/01/03/377a7f9ee5c09924b910824ead00396c.png[/screen][screen]http://img12.lostpic.net/2018/01/03/d6be51cd246895067d5eb0e3162f1287.png[/screen]Свернуть
    Похожие раздачи Искать похожие
    Инструкция по скачиванию
     1  Качаем uTorrent версии 2.0 и выше
     2  После установки, жмем выше под постером на ссылку Скачать [MediaGet] или Скачать .torrent
     3  Открываем скачанный файл через соответствующий клиент: MediaGet или uTorrent
     4  Ждем пока подключатся участники
     5  Качаем
    Комментарии о  Атлантида / Cold Skin | WEB-DL 1080p 
    Ближайшее в кино
    Вверх