• Игры для PS4
  • Игры для PS3
  • Игры для XBOX360
  • Игры для PC
  • Игры для PS2
  • Игры для PSP
  • Для телефонов
  • Музыка
  • Книги / Журналы
  • Обои
  • Опрос
    Откуда Вы о нас узнали?
      0
    • От знакомых2,1,false,300,full
    • Из социальных сетей2,2,false,300,full
    • Из поисковых систем2,3,false,300,full
    • Другое2,4,false,300,full
    Статистика
    Всего онлайн -
    Гостей -
    Пользователей -
    Короли трекера
    
    Благодарности () Закрыть
    Быстрее загружает сайты Экономит интернет—трафик Меняет оформление страницы ВК Блокирует всю рекламу на сайтах Загружает торренты как µTorrent клиент Объеденяет все твои чаты из соц. сетей в один Проигрывает твою музыку не заходя во ВКонтакте
    Новый интернет-браузер
    Orbitum
    Скачать
    и многое другое... Подробности на сайте производителя
    Информация о фильме
    Название: Прикуси пулю
    Оригинальное название: Bite the Bullet
    Год выхода: 1975
    Жанр: Боевик, приключения, вестерн
    Режиссер: Ричард Брукс
    В ролях: Джин Хэкмен, Кэндис Берген, Джеймс Коберн, Бен Джонсон, Иэн Бэннен, Ян-Майкл Винсент, Роберт Доннер, Джин Уиллис, Марио Артеага, Дэбни Коулмэн, Джон МакЛайэм, Роберт Ф. Хой, Джерри Гэтлайн, Сэлли Керклэнд, Уолтер Скотт мл.

    О фильме:
    Начало ХХ века. Проводятся лошадиные скачки. Но не на ипподроме, а по пересечённой местности. Всадники несутся во всю прыть, стремясь покрыть расстояние в 600 миль в кратчайшие сроки. Кто-то пользуется любой возможностью помешать сопернику, кто-то, наоборот, готов всегда прийти на выручку, пусть даже и конкуренту...



    Страна: США
    Студия: Columbia Pictures Corporation, Persky-Bright Productions, Vista
    Продолжительность: 01:37:40
    Перевод: Профессиональный многоголосый закадровый

    Файл
    Кодек: h.264
    Качество: BDRip 1080p
    Видео: MPEG-4 AVC, 16789 Кбит/с, 1920x816, 23,976 кадр/с
    Звук:
    Русский (AC3, 2 ch, 192 Кбит/с) / Профессиональный многоголосый
    Английский (DTS, 6 ch, 1509 Кбит/с)
    Субтитры: Нет

    Семпл

    MI
    General
    Unique ID                                : 247277407349608632821334435651799313648 (0xBA07E57670B5D105A5ACD72DE86D6CF0)
    Complete name                            : D:uTorrentPrikusi.pulju.1975.BDRip.1080p.MediaClub.mkv
    Format                                   : Matroska
    Format version                           : Version 4 / Version 2
    File size                                : 12.6 GiB
    Duration                                 : 1 h 37 min
    Overall bit rate                         : 18.5 Mb/s
    Encoded date                             : UTC 2018-01-05 20:49:52 / UTC 2017-12-01T00:02:05Z
    Writing application                      : mkvmerge v17.0.0 ("Be Ur Friend") 64-bit
    Writing library                          : libebml v1.3.5 + libmatroska v1.4.8 / Lavf57.7.2

    Video
    ID                                       : 1
    Format                                   : AVC
    Format/Info                              : Advanced Video Codec
    Format profile                           : High@L4.1
    Format settings                          : CABAC / 5 Ref Frames
    Format settings, CABAC                   : Yes
    Format settings, RefFrames               : 5 frames
    Codec ID                                 : V_MPEG4/ISO/AVC
    Duration                                 : 1 h 37 min
    Bit rate                                 : 16.8 Mb/s
    Width                                    : 1 920 pixels
    Height                                   : 816 pixels
    Display aspect ratio                     : 2.35:1
    Frame rate mode                          : Constant
    Frame rate                               : 23.976 (24000/1001) FPS
    Color space                              : YUV
    Chroma subsampling                       : 4:2:0
    Bit depth                                : 8 bits
    Scan type                                : Progressive
    Bits/(Pixel*Frame)                       : 0.447
    Stream size                              : 11.2 GiB (89%)
    Title                                    : BDRip by Silverok
    Writing library                          : x264 core 148 r2708 86b7198
    Encoding settings                        : cabac=1 / ref=5 / deblock=1:-3:-3 / analyse=0x3:0x113 / me=umh / subme=11 / psy=1 / psy_rd=1.00:0.10 / mixed_ref=1 / me_range=32 / chroma_me=1 / trellis=2 / 8x8dct=1 / cqm=0 / deadzone=21,11 / fast_pskip=1 / chroma_qp_offset=-3 / threads=12 / lookahead_threads=1 / sliced_threads=0 / nr=0 / decimate=0 / interlaced=0 / bluray_compat=0 / constrained_intra=0 / bframes=16 / b_pyramid=2 / b_adapt=1 / b_bias=0 / direct=1 / weightb=1 / open_gop=0 / weightp=2 / keyint=240 / keyint_min=24 / scenecut=40 / intra_refresh=0 / rc_lookahead=40 / rc=2pass / mbtree=1 / bitrate=16789 / ratetol=1.0 / qcomp=0.60 / qpmin=0 / qpmax=69 / qpstep=4 / cplxblur=20.0 / qblur=0.5 / vbv_maxrate=62500 / vbv_bufsize=78125 / nal_hrd=none / filler=0 / ip_ratio=1.40 / aq=1:1.00
    Default                                  : Yes
    Forced                                   : No
    Color range                              : Limited
    Color primaries                          : BT.709
    Transfer characteristics                 : BT.709
    Matrix coefficients                      : BT.709
    Statistics Tags Issue                    : mkvmerge v17.0.0 ("Be Ur Friend") 64-bit 2018-01-05 20:49:52 / mkvmerge v17.0.0 ("Be Ur Friend") 64-bit 2018-01-05 20:49:52 / UTC 2017-12-01T00:02:05Z
    FromStats_BitRate                        : 16805368
    FromStats_Duration                       : 01:37:40.063000000
    FromStats_FrameCount                     : 140500
    FromStats_StreamSize                     : 12310064439

    Audio #1
    ID                                       : 2
    Format                                   : AC-3
    Format/Info                              : Audio Coding 3
    Codec ID                                 : A_AC3
    Duration                                 : 1 h 37 min
    Bit rate mode                            : Constant
    Bit rate                                 : 192 kb/s
    Channel(s)                               : 2 channels
    Channel positions                        : Front: L R
    Sampling rate                            : 48.0 kHz
    Frame rate                               : 31.250 FPS (1536 SPF)
    Bit depth                                : 16 bits
    Compression mode                         : Lossy
    Stream size                              : 134 MiB (1%)
    Title                                    : Профессиональный многоголосый закадровый
    Language                                 : Russian
    Service kind                             : Complete Main
    Default                                  : Yes
    Forced                                   : No
    Statistics Tags Issue                    : mkvmerge v17.0.0 ("Be Ur Friend") 64-bit 2018-01-05 20:49:52 / mkvmerge v17.0.0 ("Be Ur Friend") 64-bit 2018-01-05 20:49:52 / UTC 2017-12-01T00:02:05Z
    FromStats_BitRate                        : 192000
    FromStats_Duration                       : 01:37:40.032000000
    FromStats_FrameCount                     : 183126
    FromStats_StreamSize                     : 140640768

    Audio #2
    ID                                       : 3
    Format                                   : DTS
    Format/Info                              : Digital Theater Systems
    Format profile                           : 96/24 / Core
    Codec ID                                 : A_DTS
    Duration                                 : 1 h 37 min
    Bit rate mode                            : Constant
    Bit rate                                 : 1 509 kb/s
    Channel(s)                               : 6 channels
    Channel positions                        : Front: L C R, Side: L R, LFE
    Sampling rate                            : 96.0 kHz / 48.0 kHz
    Frame rate                               : 93.750 FPS (512 SPF)
    Bit depth                                : 24 bits
    Compression mode                         : Lossy
    Stream size                              : 1.03 GiB (8%)
    Language                                 : English
    Default                                  : No
    Forced                                   : No
    Statistics Tags Issue                    : mkvmerge v17.0.0 ("Be Ur Friend") 64-bit 2018-01-05 20:49:52 / mkvmerge v17.0.0 ("Be Ur Friend") 64-bit 2018-01-05 20:49:52 / UTC 2017-12-01T00:02:05Z
    FromStats_BitRate                        : 1508999
    FromStats_Duration                       : 01:37:40.011000000
    FromStats_FrameCount                     : 549376
    FromStats_StreamSize                     : 1105344512

    Menu
    00:00:00.000                             : :Chapter 1
    00:12:45.181                             : :Chapter 2
    00:24:01.190                             : :Chapter 3
    00:32:10.220                             : :Chapter 4
    00:40:53.826                             : :Chapter 5
    00:52:04.413                             : :Chapter 6
    00:58:48.483                             : :Chapter 7
    01:14:08.569                             : :Chapter 8
    01:33:05.163                             : :Chapter 9Свернуть


    Скриншоты
    [screen]http://i102.fastpic.ru/thumb/2018/0106/c0/_5b37341fad79a602477ba7743ca2f0c0.jpeg[/screen][screen]http://i102.fastpic.ru/big/2018/0106/77/788ae658be8dd7a38d8bcc4cdf5aa277.png[/screen][screen]http://i102.fastpic.ru/big/2018/0106/8b/88df99413cf5961af85803a326c68b8b.png[/screen][screen]http://i102.fastpic.ru/big/2018/0106/32/890a9b4ff28f8847cfd5e90daef91f32.png[/screen][screen]http://i102.fastpic.ru/big/2018/0106/6a/871c5b70e9557ec49de4cd2c9820f16a.png[/screen][screen]http://i102.fastpic.ru/big/2018/0106/19/324e6bc6dbf529393215f0a6337ea019.png[/screen][screen]http://i102.fastpic.ru/thumb/2018/0106/bd/_08fcfd0842417fbd7095d09c3d69e8bd.jpeg[/screen][screen]http://i102.fastpic.ru/thumb/2018/0106/85/_0c4a962c45fa18bc1ad4f3cb6d783d85.jpeg[/screen]Свернуть
    Похожие раздачи Искать похожие
    Инструкция по скачиванию
     1  Качаем uTorrent версии 2.0 и выше
     2  После установки, жмем выше под постером на ссылку Скачать [MediaGet] или Скачать .torrent
     3  Открываем скачанный файл через соответствующий клиент: MediaGet или uTorrent
     4  Ждем пока подключатся участники
     5  Качаем
    Комментарии о  Прикуси пулю / Bite the Bullet | BDRip 1080p 
    Ближайшее в кино
    Вверх