• Игры для PS4
  • Игры для PS3
  • Игры для XBOX360
  • Игры для PC
  • Игры для PS2
  • Игры для PSP
  • Для телефонов
  • Музыка
  • Книги / Журналы
  • Обои
  • Опрос
    Откуда Вы о нас узнали?
      0
    • От знакомых2,1,false,300,full
    • Из социальных сетей2,2,false,300,full
    • Из поисковых систем2,3,false,300,full
    • Другое2,4,false,300,full
    Статистика
    Всего онлайн -
    Гостей -
    Пользователей -
    Короли трекера
    
    Благодарности () Закрыть
    Быстрее загружает сайты Экономит интернет—трафик Меняет оформление страницы ВК Блокирует всю рекламу на сайтах Загружает торренты как µTorrent клиент Объеденяет все твои чаты из соц. сетей в один Проигрывает твою музыку не заходя во ВКонтакте
    Новый интернет-браузер
    Оrbitum
    Скачать
    и многое другое... Подробности на сайте производителя
    Информация о фильме
    Название: Дочери танца
    Оригинальное название: The Lure / Córki dancingu
    Год выпуска: 2015
    Жанр:  мюзикл, ужасы, драма, комедия
    Режиссер: Агнешка Смочиньска
    В ролях: Марта Мазурек (Srebrna), Михалина Ольшанска (Zwota), Кинга Прейс (Wokalistka Krysia), Анджей Конопка (Perkusista), Якуб Гершал (Mietek), Зигмунт Малянович (Kierownik sali), Магдалена Целецка (Boskie Futro), Катажина Херман (Milicjantka), Марцин Ковальчик (Tryton / Dedal), Джоэнна Нимирская (Nerka), Katarzyna Sawczuk (Nancy), Рома Гонщёровска (Rakieta)

    О фильме:
    Две плотоядные сестры-русалки охотятся на неосторожно подходящих к воде людей - гипнотизируют жертв пением и утаскивают в воду. Но в конце концов им становится скучно, и вот уже две девушки устраиваются в ночной клуб певицами. И как обычно и бывает в таких историях - одна из сестёр влюбляется в обыкновенного парня.



    Страна: Польша
    Студия: Wytwórnia Filmów Dokumentalnych i Fabularnych (WFDiF), Platige Image, Telewizja Polska
    Продолжительность: 01:32:28
    Перевод: Авторский (одноголосый, закадровый) А.Дольский

    Файл
    Качество: BDRip 720p | Criterion Collection
    Формат: Matroska
    Видео: 1280x536 at 23.976 fps, x264, ~4100 kbps avg
    Аудио#1: Russian: 48 kHz, DTS, 3/2 (L,C,R,l,r) + LFE ch, ~1509 kbps avg |Авторский, А.Дольский|
    Аудио#2: Polish: 48 kHz, DTS, 3/2 (L,C,R,l,r) + LFE ch, ~1509 kbps avg
    Субтитры: English

    ***Сохранены оригинальные главы как на Blu-ray.
    ***Релиз: porvaliparus.

    Знаете ли вы, что...
    За основу сюжета взята сказка «Русалочка» (1837) Ганса Кристиана Андерсена (1805-1975).
    Свернуть


    MediaInfo
    Общее
    Уникальный идентификатор                 : 230137799626936222467439928182663406928 (0xAD22ED8F07470C64D040F4471081E550)
    Полное имя                               : The.Lure.2015.Criterion.Collection.BDRip.720p.mkv
    Формат                                   : Matroska
    Версия формата                           : Version 4 / Version 2
    Размер файла                             : 4,60 Гбайт
    Продолжительность                        : 1 ч. 32 м.
    Общий поток                              : 7118 Кбит/сек
    Название фильма                          : The.Lure.2015.Criterion.Collection.BDRip.720p-porvaliparus
    Дата кодирования                         : UTC 2018-01-05 11:42:16
    Программа кодирования                    : mkvmerge v19.0.0 ("Brave Captain") 64-bit
    Библиотека кодирования                   : libebml v1.3.5 + libmatroska v1.4.8

    Видео
    Идентификатор                            : 1
    Формат                                   : AVC
    Формат/Информация                        : Advanced Video Codec
    Профиль формата                          : High@L4.1
    Параметр CABAC формата                   : Да
    Параметр ReFrames формата                : 12 кадров
    Идентификатор кодека                     : V_MPEG4/ISO/AVC
    Продолжительность                        : 1 ч. 32 м.
    Битрейт                                  : 4100 Кбит/сек
    Ширина                                   : 1280 пикселей
    Высота                                   : 536 пикселей
    Соотношение сторон                       : 2,40:1
    Режим частоты кадров                     : Постоянный
    Частота кадров                           : 23,976 кадра/сек
    Цветовое пространство                    : YUV
    Субдискретизация насыщенности            : 4:2:0
    Битовая глубина                          : 8 бит
    Тип развёртки                            : Прогрессивная
    Бит/(Пиксели*Кадры)                      : 0.249
    Размер потока                            : 2,56 Гбайт (56%)
    Заголовок                                : The.Lure.2015.Criterion.Collection.BDRip.720p
    Библиотека кодирования                   : x264 core 152 r2851 ba24899
    Настройки программы                      : cabac=1 / ref=12 / deblock=1:-3:-3 / analyse=0x3:0x133 / me=umh / subme=11 / psy=1 / psy_rd=1.00:0.10 / mixed_ref=1 / me_range=32 / chroma_me=1 / trellis=2 / 8x8dct=1 / cqm=0 / deadzone=21,11 / fast_pskip=0 / chroma_qp_offset=-3 / threads=12 / lookahead_threads=3 / sliced_threads=0 / nr=0 / decimate=1 / interlaced=0 / bluray_compat=0 / constrained_intra=0 / bframes=10 / b_pyramid=2 / b_adapt=2 / b_bias=0 / direct=3 / weightb=1 / open_gop=0 / weightp=2 / keyint=250 / keyint_min=23 / scenecut=40 / intra_refresh=0 / rc_lookahead=40 / rc=2pass / mbtree=0 / bitrate=4100 / ratetol=1.0 / qcomp=0.60 / qpmin=0 / qpmax=69 / qpstep=4 / cplxblur=20.0 / qblur=0.5 / vbv_maxrate=50000 / vbv_bufsize=62500 / nal_hrd=none / filler=0 / ip_ratio=1.40 / pb_ratio=1.30 / aq=1:0.80
    Default                                  : Да
    Forced                                   : Нет

    Аудио #1
    Идентификатор                            : 2
    Формат                                   : DTS
    Формат/Информация                        : Digital Theater Systems
    Режим                                    : 16
    Параметр Endianness формата              : Big
    Идентификатор кодека                     : A_DTS
    Продолжительность                        : 1 ч. 32 м.
    Вид битрейта                             : Постоянный
    Битрейт                                  : 1509 Кбит/сек
    Каналы                                   : 6 каналов
    Расположение каналов                     : Front: L C R, Side: L R, LFE
    Частота                                  : 48,0 КГц
    Битовая глубина                          : 24 бит
    Метод сжатия                             : С потерями
    Размер потока                            : 998 Мбайт (21%)
    Заголовок                                : AVO [А. Дольский]
    Язык                                     : Russian
    Default                                  : Да
    Forced                                   : Нет

    Аудио #2
    Идентификатор                            : 3
    Формат                                   : DTS
    Формат/Информация                        : Digital Theater Systems
    Режим                                    : 16
    Параметр Endianness формата              : Big
    Идентификатор кодека                     : A_DTS
    Продолжительность                        : 1 ч. 32 м.
    Вид битрейта                             : Постоянный
    Битрейт                                  : 1509 Кбит/сек
    Каналы                                   : 6 каналов
    Расположение каналов                     : Front: L C R, Side: L R, LFE
    Частота                                  : 48,0 КГц
    Битовая глубина                          : 24 бит
    Метод сжатия                             : С потерями
    Размер потока                            : 998 Мбайт (21%)
    Язык                                     : Polish
    Default                                  : Нет
    Forced                                   : Нет

    Текст
    Идентификатор                            : 4
    Формат                                   : UTF-8
    Идентификатор кодека                     : S_TEXT/UTF8
    Идентификатор кодека/Информация          : UTF-8 Plain Text
    Язык                                     : English
    Default                                  : Нет
    Forced                                   : Нет

    Меню
    00:00:00.000                             : en:Chapter 1
    00:09:03.960                             : en:Chapter 2
    00:16:02.128                             : en:Chapter 3
    00:18:45.750                             : en:Chapter 4
    00:24:09.615                             : en:Chapter 5
    00:27:27.896                             : en:Chapter 6
    00:32:18.103                             : en:Chapter 7
    00:38:23.968                             : en:Chapter 8
    00:44:44.932                             : en:Chapter 9
    00:48:35.037                             : en:Chapter 10
    00:55:20.234                             : en:Chapter 11
    01:02:09.059                             : en:Chapter 12
    01:08:07.125                             : en:Chapter 13
    01:14:01.062                             : en:Chapter 14
    01:19:50.661                             : en:Chapter 15
    01:24:16.802                             : en:Chapter 16
    01:29:00.835                             : en:Chapter 17Свернуть


    Скриншоты
    [screen]http://img12.lostpic.net/2018/01/06/c405e537da1745c576ac43499b539be0.png[/screen][screen]http://img12.lostpic.net/2018/01/06/74e4578fc6c2cdbd3d276c20ab8c3627.png[/screen][screen]http://img12.lostpic.net/2018/01/06/a4da39f33108c87dac0a8eb6f4695498.png[/screen][screen]http://img12.lostpic.net/2018/01/06/e7c728ce4b08fde49d1b66404bd6ba2f.png[/screen]Свернуть
    Похожие раздачи Искать похожие
    Инструкция по скачиванию
     1  Качаем uTorrent версии 2.0 и выше
     2  После установки, жмем выше под постером на ссылку Скачать [MediaGet] или Скачать .torrent
     3  Открываем скачанный файл через соответствующий клиент: MediaGet или uTorrent
     4  Ждем пока подключатся участники
     5  Качаем
    Комментарии о  Дочери танца / The Lure / Córki dancingu | BDRip 720p 
    Ближайшее в кино
    Вверх