• Игры для PS4
  • Игры для PS3
  • Игры для XBOX360
  • Игры для PC
  • Игры для PS2
  • Игры для PSP
  • Для телефонов
  • Музыка
  • Книги / Журналы
  • Обои
  • Опрос
    Удобен ли сайт в использовании?
      0
    • Очень удобен, все понятно1,1,false,300,full
    • Удобен1,2,false,300,full
    • Средне1,3,false,300,full
    • Неудобен, трудно ориентироваться1,4,false,300,full
    • Совсем неудобен1,5,false,300,full
    Статистика
    Всего онлайн -
    Гостей -
    Пользователей -
    Короли трекера
    
    Благодарности () Закрыть
    Быстрее загружает сайты Экономит интернет—трафик Меняет оформление страницы ВК Блокирует всю рекламу на сайтах Загружает торренты как µTorrent клиент Объеденяет все твои чаты из соц. сетей в один Проигрывает твою музыку не заходя во ВКонтакте
    Новый интернет-браузер
    Orbitum
    Скачать
    и многое другое... Подробности на сайте производителя
    Информация о фильме
    Название: Наемник
    Оригинальное название: American Assassin
    Год выхода: 2017
    Жанр: Боевик
    Режиссер: Майкл Куэста
    В ролях: Дилан О’Брайен, Майкл Китон, Санаа Лэтэн, Шива Негар, Тейлор Китч, Дэвид Суше, Навид Негабан, Скотт Эдкинс, Шарлотта Вега, Кристофер Уэбстер

    О фильме:
    23-летний агент ЦРУ Митч Рэпп (Дилан О"Брайен), еще в раннем возрасте оставшийся без родителей, тяжело переживает гибель своей невесты, ставшей жертвой теракта. Решив помочь убитому горем Митчу, заместитель директора ЦРУ Ирэн Кеннеди (Санаа Лэтэн) назначает ему нового наставника в лице ветерана Холодной войны Стэна Хёрли (Майкл Китон), который должен обучить Рэппа навыкам противодействия терроризму. В самый разгар обучения Хёрли и Рэпп вынуждены отправиться на опасное задание, их цель — найти и остановить неизвестного оперативника по прозвищу «Призрак» (Тэйлор Китч), который планирует начать Третью мировую войну на Ближнем Востоке.



    Страна: США
    Студия: CBS Films, Di Bonaventura Pictures, Lionsgate, Nick Wechsler Productions
    Продолжительность: 01:51:44
    Перевод: Дублированный | iTunes

    Файл
    Качество: BDRemux 2160p
    Видео: MPEG-H HEVC HDR Video, 3840x2160, 66.3 Mbit/s, 23.976 fps
    Звук:
    Аудио #01: 48 kHz, AC3, 5.1, 384 Kbps | Дублированный | iTunes | RUS |[img]http://lostpix.com/img/2016-04/26/ecarul7mj2gcrjkf30af8u4tk.gif[/img]
    Аудио #02: 48 kHz, TrueHD, 7.1, 4467 Kbps | Оригинал |  ENG |[img]http://lostpix.com/img/2016-09/30/0icucyo5gq0qmwlibabcgmhiw.gif[/img]
    Аудио #03: 48 kHz, AC3, 5.1, 640 Kbps | Оригинал |  ENG |[img]http://lostpix.com/img/2016-09/30/0icucyo5gq0qmwlibabcgmhiw.gif[/img]
    Субтитры: Английские

    [img]http://img12.lostpic.net/2018/01/06/61ce9dea604230454da1e46336c21e43.png[/img][img]http://img12.lostpic.net/2018/01/06/3670b63ac1611a33d3ce9461e9a99d73.png[/img][img]http://img12.lostpic.net/2018/01/06/44e6a90ba60735ab1f09ed4698b94f54.png[/img][img]http://img12.lostpic.net/2018/01/06/7f3ea9491c7657c89ca142ae06fc85fd.png[/img][img]http://img12.lostpic.net/2018/01/06/4be5df787d5c86ed37fc280bf383dd7a.png[/img]

    MI
    General
    Unique ID                   : 75843369225086533444395393022895635070 (0x390EE6CE6E3C86D0DC43440B16ECBA7E)
    Complete name               : G:VideoSSDAmerican.Assassin.2017.BDREMUX.2160p.4K.UltraHD.HEVC.HDR.ExKinoRay.mkv
    Format                      : Matroska
    Format version              : Version 4 / Version 2
    File size                   : 56.1 GiB
    Duration                    : 1 h 51 min
    Overall bit rate mode       : Variable
    Overall bit rate            : 71.9 Mb/s
    Movie name                  : American Assassin 2017 from ExKinoRay
    Encoded date                : UTC 2018-01-05 23:30:15
    Writing application         : mkvmerge v19.0.0 ("Brave Captain") 64-bit
    Writing library             : libebml v1.3.5 + libmatroska v1.4.8

    Video
    ID                          : 1
    Format                      : HEVC
    Format/Info                 : High Efficiency Video Coding
    Format profile              : Main 10@L5.1@High
    Codec ID                    : V_MPEGH/ISO/HEVC
    Duration                    : 1 h 51 min
    Bit rate                    : 66.3 Mb/s
    Width                       : 3 840 pixels
    Height                      : 2 160 pixels
    Display aspect ratio        : 16:9
    Frame rate mode             : Constant
    Frame rate                  : 23.976 (24000/1001) FPS
    Color space                 : YUV
    Chroma subsampling          : 4:2:0 (Type 2)
    Bit depth                   : 10 bits
    Bits/(Pixel*Frame)          : 0.334
    Stream size                 : 51.8 GiB (92%)
    Language                    : English
    Default                     : Yes
    Forced                      : No
    Color range                 : Limited
    Color primaries             : BT.2020
    Transfer characteristics    : PQ
    Matrix coefficients         : BT.2020 non-constant
    Mastering display color pri : R: x=0.680000 y=0.320000, G: x=0.265000 y=0.690000, B: x=0.150000 y=0.060000, White point: x=0.312700 y=0.329000
    Mastering display luminance : min: 0.0050 cd/m2, max: 1000.0000 cd/m2
    Maximum Content Light Level : 1000 cd/m2
    Maximum Frame-Average Light : 607 cd/m2

    Audio #1
    ID                          : 2
    Format                      : AC-3
    Format/Info                 : Audio Coding 3
    Codec ID                    : A_AC3
    Duration                    : 1 h 51 min
    Bit rate mode               : Constant
    Bit rate                    : 384 kb/s
    Channel(s)                  : 6 channels
    Channel positions           : Front: L C R, Side: L R, LFE
    Sampling rate               : 48.0 kHz
    Frame rate                  : 31.250 FPS (1536 SPF)
    Bit depth                   : 16 bits
    Compression mode            : Lossy
    Stream size                 : 307 MiB (1%)
    Title                       : iTunes
    Language                    : Russian
    Service kind                : Complete Main
    Default                     : Yes
    Forced                      : No

    Audio #2
    ID                          : 3
    Format                      : TrueHD
    Format profile              : TrueHD+Atmos / TrueHD
    Codec ID                    : A_TRUEHD
    Duration                    : 1 h 51 min
    Bit rate mode               : Variable
    Bit rate                    : 4 467 kb/s
    Maximum bit rate            : 8 019 kb/s
    Channel(s)                  : Object Based / 8 channels
    Channel positions           : Object Based / Front: L C R, Side: L R, Back: L R, LFE
    Sampling rate               :  / 48.0 kHz
    Frame rate                  : 1 200.000 FPS (40 SPF)
    Compression mode            : Lossless
    Stream size                 : 3.49 GiB (6%)
    Title                       : Original
    Language                    : English
    Default                     : No
    Forced                      : No

    Audio #3
    ID                          : 4
    Format                      : AC-3
    Format/Info                 : Audio Coding 3
    Codec ID                    : A_AC3
    Duration                    : 1 h 51 min
    Bit rate mode               : Constant
    Bit rate                    : 640 kb/s
    Channel(s)                  : 6 channels
    Channel positions           : Front: L C R, Side: L R, LFE
    Sampling rate               : 48.0 kHz
    Frame rate                  : 31.250 FPS (1536 SPF)
    Bit depth                   : 16 bits
    Compression mode            : Lossy
    Stream size                 : 512 MiB (1%)
    Language                    : English
    Service kind                : Complete Main
    Default                     : No
    Forced                      : No

    Text
    ID                          : 5
    Format                      : UTF-8
    Codec ID                    : S_TEXT/UTF8
    Codec ID/Info               : UTF-8 Plain Text
    Duration                    : 1 h 42 min
    Bit rate                    : 42 b/s
    Count of elements           : 1109
    Stream size                 : 31.6 KiB (0%)
    Title                       : Full
    Language                    : English
    Default                     : No
    Forced                      : No

    Menu
    00:00:00.000                : en:Chapter 01
    00:05:32.624                : en:Chapter 02
    00:11:18.386                : en:Chapter 03
    00:16:10.553                : en:Chapter 04
    00:20:39.321                : en:Chapter 05
    00:29:17.172                : en:Chapter 06
    00:40:31.971                : en:Chapter 07
    00:52:33.400                : en:Chapter 08
    00:57:10.761                : en:Chapter 09
    01:07:09.067                : en:Chapter 10
    01:12:53.494                : en:Chapter 11
    01:17:45.536                : en:Chapter 12
    01:22:38.120                : en:Chapter 13
    01:28:33.058                : en:Chapter 14
    01:33:14.798                : en:Chapter 15
    01:41:12.858                : en:Chapter 16Свернуть


    Подпишись на меня, кликни по картинке > : [img]http://i069.radikal.ru/1712/fb/cc798e05d06e.gif[/img]

    [img]http://lostpix.com/img/2017-03/22/pa3kns75lpl0e564ik1il8ow9.gif[/img]
    Похожие раздачи Искать похожие
    Инструкция по скачиванию
     1  Качаем uTorrent версии 2.0 и выше
     2  После установки, жмем выше под постером на ссылку Скачать [MediaGet] или Скачать .torrent
     3  Открываем скачанный файл через соответствующий клиент: MediaGet или uTorrent
     4  Ждем пока подключатся участники
     5  Качаем
    Комментарии о  Наемник / American Assassin | BDRemux 
    Ближайшее в кино
    Вверх