• Игры для PS4
  • Игры для PS3
  • Игры для XBOX360
  • Игры для PC
  • Игры для PS2
  • Игры для PSP
  • Для телефонов
  • Музыка
  • Книги / Журналы
  • Обои
  • Опрос
    Удобен ли сайт в использовании?
      0
    • Очень удобен, все понятно1,1,false,300,full
    • Удобен1,2,false,300,full
    • Средне1,3,false,300,full
    • Неудобен, трудно ориентироваться1,4,false,300,full
    • Совсем неудобен1,5,false,300,full
    Статистика
    Всего онлайн -
    Гостей -
    Пользователей -
    Короли трекера
    
    Благодарности () Закрыть
    Быстрее загружает сайты Экономит интернет—трафик Меняет оформление страницы ВК Блокирует всю рекламу на сайтах Загружает торренты как µTorrent клиент Объеденяет все твои чаты из соц. сетей в один Проигрывает твою музыку не заходя во ВКонтакте
    Новый интернет-браузер
    Orbitum
    Скачать
    и многое другое... Подробности на сайте производителя
    Информация о фильме
    Название: Злоключения Альфреда
    Оригинальное название: Les Malheurs d"Alfred
    Год выхода: 1972
    Жанр:  комедия
    Режиссер: Ив Робер
    В ролях: Пьер Ришар, Анни Дюпре, Жан Карме, Поль Пребуа, Поль Ле Персон, Марио Давид, Френсис Лакс, Ив Робер, Робер Дальбан, Даниэль Лалу

    О фильме:
    Альфреду Дюмонтье с рождения катастрофически не везло: в семь лет он чуть было не попал в плен к фашистам, отец и мать умерли рано, девушка бросила его и ушла в монастырь. Пресытившись несчастьями, Альфред решил утопиться. И надо же было такому случиться, что именно на том самом мосту, с которого бросился в воду Альфред, в ту самую ночь, и в тот же час, туда пришла такая же невезучая бедолага - Агата Бодар, которую бросил известный телеведущий. Знай они, что сулит им эта случайная встреча... то они, наверное, всё равно бы пошли на тот мост, чтобы встретиться, и никогда не раставаться.



    Выпущено: Франция, Gaumont International
    Продолжительность: 01:33:29
    Перевод: Профессиональный (многоголосый закадровый)

    Файл
    Качество видео: BDRip-AVC
    Видео: AVC/H.264, 1024x616, ~2765 Kbps
    Аудио 1: Русский, AC3, 2 ch, 192 Kbps, 48.0 kHz (MVO, РенТВ)
    Аудио 2: Русский, AC3, 2 ch, 192 Kbps, 48.0 kHz (MVO, студия «Кипарис»)
    Аудио 3: Французский, AC3, 2 ch, 192 Kbps, 48.0 kHz (Оригинал)
    Субтитры: нет

    M/I
    General
    Unique ID                                : 225727116163390984630017806805667967989 (0xA9D1761308863059B4CECF45AB8473F5)
    Complete name                            : F:DownloadsЗлоключения Альфреда. 1972. NNMCLUB.mkv
    Format                                   : Matroska
    Format version                           : Version 4 / Version 2
    File size                                : 2.18 GiB
    Duration                                 : 1h 33mn
    Overall bit rate                         : 3 345 Kbps
    Encoded date                             : UTC 2017-12-20 23:08:31
    Writing application                      : mkvmerge v7.0.0 ("Where We Going") 32bit built on Jun  9 2014 15:08:34
    Writing library                          : libebml v1.3.0 + libmatroska v1.4.1
    DURATION                                 : 01:33:29.024000000
    NUMBER_OF_FRAMES                         : 175282
    NUMBER_OF_BYTES                          : 134616576
    _STATISTICS_WRITING_APP                  : mkvmerge v7.0.0 ("Where We Going") 32bit built on Jun  9 2014 15:08:34
    _STATISTICS_WRITING_DATE_UTC             : 2017-12-20 23:08:31
    _STATISTICS_TAGS                         : BPS DURATION NUMBER_OF_FRAMES NUMBER_OF_BYTES

    Video
    ID                                       : 1
    Format                                   : AVC
    Format/Info                              : Advanced Video Codec
    Format profile                           : High@L4.1
    Format settings, CABAC                   : Yes
    Format settings, ReFrames                : 9 frames
    Codec ID                                 : V_MPEG4/ISO/AVC
    Duration                                 : 1h 33mn
    Bit rate                                 : 2 767 Kbps
    Width                                    : 1 024 pixels
    Height                                   : 616 pixels
    Display aspect ratio                     : 1.662
    Frame rate mode                          : Constant
    Frame rate                               : 24.000 fps
    Color space                              : YUV
    Chroma subsampling                       : 4:2:0
    Bit depth                                : 8 bits
    Scan type                                : Progressive
    Bits/(Pixel*Frame)                       : 0.183
    Stream size                              : 1.76 GiB (81%)
    Title                                    : Les Malheurs d"Alfred
    Writing library                          : x264 core 125 r2208 d9d2288
    Encoding settings                        : cabac=1 / ref=9 / deblock=1:-1:-1 / analyse=0x3:0x133 / me=umh / subme=10 / psy=1 / psy_rd=1.00:0.10 / mixed_ref=1 / me_range=32 / chroma_me=1 / trellis=2 / 8x8dct=1 / cqm=0 / deadzone=21,11 / fast_pskip=0 / chroma_qp_offset=-3 / threads=6 / lookahead_threads=1 / sliced_threads=0 / nr=0 / decimate=0 / interlaced=0 / bluray_compat=0 / constrained_intra=0 / bframes=7 / b_pyramid=2 / b_adapt=2 / b_bias=0 / direct=3 / weightb=1 / open_gop=0 / weightp=2 / keyint=250 / keyint_min=25 / scenecut=40 / intra_refresh=0 / rc_lookahead=60 / rc=2pass / mbtree=1 / bitrate=2767 / ratetol=1.0 / qcomp=0.60 / qpmin=0 / qpmax=69 / qpstep=4 / cplxblur=20.0 / qblur=0.5 / ip_ratio=1.40 / aq=1:1.00
    Language                                 : French
    Default                                  : Yes
    Forced                                   : No

    Audio #1
    ID                                       : 2
    Format                                   : AC-3
    Format/Info                              : Audio Coding 3
    Mode extension                           : CM (complete main)
    Format settings, Endianness              : Big
    Codec ID                                 : A_AC3
    Duration                                 : 1h 33mn
    Bit rate mode                            : Constant
    Bit rate                                 : 192 Kbps
    Channel(s)                               : 2 channels
    Channel positions                        : Front: L R
    Sampling rate                            : 48.0 KHz
    Bit depth                                : 16 bits
    Compression mode                         : Lossy
    Stream size                              : 128 MiB (6%)
    Title                                    : Многоголосый закадровый, РенТВ
    Language                                 : Russian
    Default                                  : Yes
    Forced                                   : No

    Audio #2
    ID                                       : 3
    Format                                   : AC-3
    Format/Info                              : Audio Coding 3
    Mode extension                           : CM (complete main)
    Format settings, Endianness              : Big
    Codec ID                                 : A_AC3
    Duration                                 : 1h 33mn
    Bit rate mode                            : Constant
    Bit rate                                 : 192 Kbps
    Channel(s)                               : 2 channels
    Channel positions                        : Front: L R
    Sampling rate                            : 48.0 KHz
    Bit depth                                : 16 bits
    Compression mode                         : Lossy
    Stream size                              : 128 MiB (6%)
    Title                                    : Многоголосый закадровый, Кипарис
    Language                                 : Russian
    Default                                  : No
    Forced                                   : No

    Audio #3
    ID                                       : 4
    Format                                   : AC-3
    Format/Info                              : Audio Coding 3
    Mode extension                           : CM (complete main)
    Format settings, Endianness              : Big
    Codec ID                                 : A_AC3
    Duration                                 : 1h 33mn
    Bit rate mode                            : Constant
    Bit rate                                 : 192 Kbps
    Channel(s)                               : 2 channels
    Channel positions                        : Front: L R
    Sampling rate                            : 48.0 KHz
    Bit depth                                : 16 bits
    Compression mode                         : Lossy
    Stream size                              : 128 MiB (6%)
    Title                                    : Оригинал
    Language                                 : French
    Default                                  : No
    Forced                                   : NoСвернуть


    Скриншоты
    [screen]http://lostpix.com/img/2018-01/06/mbzvc9ux1us6h4fvwfgy0w2px.png[/screen][screen]http://lostpix.com/img/2018-01/06/4lf0ygykjw57kuq3qywvji2q8.png[/screen][screen]http://lostpix.com/img/2018-01/06/2cysrm4rmryb28yw49hk2x0nj.png[/screen][screen]http://lostpix.com/img/2018-01/06/iwbzt32iljuycat2blz18tyf5.png[/screen]Свернуть
    Инструкция по скачиванию
     1  Качаем uTorrent версии 2.0 и выше
     2  После установки, жмем выше под постером на ссылку Скачать [MediaGet] или Скачать .torrent
     3  Открываем скачанный файл через соответствующий клиент: MediaGet или uTorrent
     4  Ждем пока подключатся участники
     5  Качаем
    Комментарии о  Злоключения Альфреда / Les Malheurs d'Alfred | BDRip-AVC 
    Ближайшее в кино
    Вверх