• Игры для PS4
  • Игры для PS3
  • Игры для XBOX360
  • Игры для PC
  • Игры для PS2
  • Игры для PSP
  • Для телефонов
  • Музыка
  • Книги / Журналы
  • Обои
  • Опрос
    Удобен ли сайт в использовании?
      0
    • Очень удобен, все понятно1,1,false,300,full
    • Удобен1,2,false,300,full
    • Средне1,3,false,300,full
    • Неудобен, трудно ориентироваться1,4,false,300,full
    • Совсем неудобен1,5,false,300,full
    Статистика
    Всего онлайн -
    Гостей -
    Пользователей -
    Короли трекера
    
    Благодарности () Закрыть
    Быстрее загружает сайты Экономит интернет—трафик Меняет оформление страницы ВК Блокирует всю рекламу на сайтах Загружает торренты как µTorrent клиент Объеденяет все твои чаты из соц. сетей в один Проигрывает твою музыку не заходя во ВКонтакте
    Новый интернет-браузер
    Оrbitum
    Скачать
    и многое другое... Подробности на сайте производителя
    Информация о фильме
    Название: Хроники Риддика
    Оригинальное название: The chronicles of Riddick
    Год выхода: 2004
    Жанр:  Фантастика, боевик, триллер, приключения
    Режиссер: Дэвид Туи / David Twohy
    В ролях: Вин Дизель, Колм Фиори, Тэнди Ньютон, Джуди Денч, Карл Урбан, Алекса Давалос, Лайнес Роуч, Йорик ван Вагенинген, Ник Чинланд, Кейт Дэвид

    О фильме :
    Последние пять лет Риддик провел в бегах среди забытых миров на задворках галактики, прячась от наемников, назначивших цену за его голову. Теперь беглец оказался на планете Гелион, где живет прогрессивное многонациональное общество, завоеванное лордом Маршалом, фанатиком, решившим поработить человечество армадой своих воинов, некромонгеров. Совершив побег из подземной тюрьмы, где температура колебалась от арктических ночей до вулканических дней, Риддик встречает Кайру, последнюю оставшуюся в живых женщину из раннего периода его жизни. Его попытки освободить себя и Кайру приводят их на борт главного корабля некромонгеров, где ему предстоит столкнуться с лордом Маршалом в апокалиптической битве не на жизнь, а на смерть.



    Выпущено: США / Universal Pictures
    Продолжительность: 02:14:06
    Перевод: Профессиональный (Дублированный + многоголосые вставки на режиссёрские места)

    Файл
    Формат: MKV
    Качество: BDRip-AVC (BDRemux 1080p)
    Видео: MPEG-4 AVC, 768x320, ~ 700 Кбит/с
    Аудио: [img]http://i93.fastpic.ru/big/2017/0727/c0/4b72f0369a3393219ed5935e91fc15c0.gif[/img] AAC-LC, 2 ch, ~ 76 Кбит/с
    Субтитры: Русские

    MI
    Общее
    Уникальный идентификатор : 247863329362722102682360032474424798654 (0xBA78BDA5F46951D1B4227C95C7D9EDBE)
    Полное имя : D:MOVIESThe.Chronicles.of.Riddick.2004.ExKinoRay.mkv
    Формат : Matroska
    Версия формата : Version 4 / Version 2
    Размер файла : 746 Мбайт
    Продолжительность : 2 ч. 14 м.
    Общий поток : 777 Кбит/сек
    Дата кодирования : UTC 2018-01-06 05:49:12
    Программа кодирования : mkvmerge v15.0.0 ("Duel with the Devil") 64-bit
    Библиотека кодирования : libebml v1.3.5 + libmatroska v1.4.5

    Видео
    Идентификатор : 1
    Формат : AVC
    Формат/Информация : Advanced Video Codec
    Профиль формата : High@L4.1
    Параметр CABAC формата : Да
    Параметр RefFrames формата : 10 кадров
    Идентификатор кодека : V_MPEG4/ISO/AVC
    Продолжительность : 2 ч. 14 м.
    Битрейт : 700 Кбит/сек
    Ширина : 768 пикселей
    Высота : 320 пикселей
    Соотношение сторон : 2,40:1
    Режим частоты кадров : Постоянный
    Частота кадров : 23,976 (24000/1001) кадра/сек
    Цветовое пространство : YUV
    Субдискретизация насыщенности : 4:2:0
    Битовая глубина : 8 бит
    Тип развёртки : Прогрессивная
    Бит/(Пиксели*Кадры) : 0.119
    Размер потока : 671 Мбайт (90%)
    Библиотека кодирования : x264 core 152 r2851 ba24899
    Настройки программы : cabac=1 / ref=10 / deblock=1:-3:-3 / analyse=0x3:0x133 / me=umh / subme=11 / psy=1 / psy_rd=1.00:0.05 / mixed_ref=1 / me_range=32 / chroma_me=1 / trellis=2 / 8x8dct=1 / cqm=0 / deadzone=21,11 / fast_pskip=0 / chroma_qp_offset=-3 / threads=6 / lookahead_threads=1 / sliced_threads=0 / nr=0 / decimate=0 / interlaced=0 / bluray_compat=0 / constrained_intra=0 / bframes=10 / b_pyramid=2 / b_adapt=2 / b_bias=0 / direct=3 / weightb=1 / open_gop=0 / weightp=2 / keyint=240 / keyint_min=23 / scenecut=40 / intra_refresh=0 / rc_lookahead=40 / rc=2pass / mbtree=0 / bitrate=700 / ratetol=1.0 / qcomp=0.60 / qpmin=0 / qpmax=69 / qpstep=4 / cplxblur=20.0 / qblur=0.5 / vbv_maxrate=50000 / vbv_bufsize=62500 / nal_hrd=none / filler=0 / ip_ratio=1.40 / pb_ratio=1.30 / aq=1:1.00
    Default : Да
    Forced : Нет

    Аудио
    Идентификатор : 2
    Формат : AAC
    Формат/Информация : Advanced Audio Codec
    Профиль формата : LC
    Идентификатор кодека : A_AAC
    Продолжительность : 2 ч. 14 м.
    Битрейт : 76,0 Кбит/сек
    Каналы : 2 канала
    Расположение каналов : Front: L R
    Частота : 48,0 КГц
    Частота кадров : 46,875 кадров/сек (1024 SPF)
    Метод сжатия : С потерями
    Задержка видео : 9 мс.
    Размер потока : 73,0 Мбайт (10%)
    Default : Да
    Forced : Нет

    Текст
    Идентификатор : 3
    Формат : UTF-8
    Идентификатор кодека : S_TEXT/UTF8
    Идентификатор кодека/Информация : UTF-8 Plain Text
    Продолжительность : 2 ч. 5 м.
    Битрейт : 62 бит/сек
    ElementCount : 873
    Размер потока : 57,7 Кбайт (0%)
    Язык : Russian
    Default : Нет
    Forced : Нет
    Свернуть


    Скриншоты
    [screen]http://i99.fastpic.ru/big/2018/0106/be/9bbe1873f03e1edf44590cc8e0da5ebe.jpg[/screen][screen]http://i103.fastpic.ru/big/2018/0106/4d/423382e1d7e6f96e58c37b6cbf3fbf4d.jpg[/screen][screen]http://i103.fastpic.ru/big/2018/0106/9a/bdbed55f7bb99c919ba107fd3af9de9a.jpg[/screen][screen]http://i102.fastpic.ru/big/2018/0106/12/c9008aff40c26ac184d5d218aa6ad912.jpg[/screen]

    [screen]http://i103.fastpic.ru/big/2018/0106/4d/13e6369c6889481712b6f5605b9ed84d.jpg[/screen][screen]http://i100.fastpic.ru/big/2018/0106/e8/8d179a02612c6e3b56e7aeb7197879e8.jpg[/screen][screen]http://i99.fastpic.ru/big/2018/0106/fd/b8e6c73e3d4c2ccde9f7f9faea97f8fd.jpg[/screen][screen]http://i102.fastpic.ru/big/2018/0106/c2/ae59359d0a77910d0a1a4a9956c102c2.jpg[/screen]Свернуть
    Похожие раздачи Искать похожие
    Инструкция по скачиванию
     1  Качаем uTorrent версии 2.0 и выше
     2  После установки, жмем выше под постером на ссылку Скачать [MediaGet] или Скачать .torrent
     3  Открываем скачанный файл через соответствующий клиент: MediaGet или uTorrent
     4  Ждем пока подключатся участники
     5  Качаем
    Комментарии о  Хроники Риддика / The Chronicles of Riddick | BDRip-AVC 
    Ближайшее в кино
    Вверх