• Игры для PS4
  • Игры для PS3
  • Игры для XBOX360
  • Игры для PC
  • Игры для PS2
  • Игры для PSP
  • Для телефонов
  • Музыка
  • Книги / Журналы
  • Обои
  • Опрос
    Удобен ли сайт в использовании?
      0
    • Очень удобен, все понятно1,1,false,300,full
    • Удобен1,2,false,300,full
    • Средне1,3,false,300,full
    • Неудобен, трудно ориентироваться1,4,false,300,full
    • Совсем неудобен1,5,false,300,full
    Статистика
    Всего онлайн -
    Гостей -
    Пользователей -
    Короли трекера
    
    Благодарности () Закрыть
    Быстрее загружает сайты Экономит интернет—трафик Меняет оформление страницы ВК Блокирует всю рекламу на сайтах Загружает торренты как µTorrent клиент Объеденяет все твои чаты из соц. сетей в один Проигрывает твою музыку не заходя во ВКонтакте
    Новый интернет-браузер
    Orbitum
    Скачать
    и многое другое... Подробности на сайте производителя
    Производство: США, Германия, Китай / Alcon Entertainment, DMG Entertainment, Ehman Productions
    Жанр:  боевик, триллер, криминал, спорт

    Режиссер: Эриксон Кор
    Продюсер: Джон Балдеччи, Бродерик Джонсон, Эндрю А. Косов
    Актеры: Люк Брейси, Эдгар Рамирес, Тереза Палмер, Макс Тириот, Рэй Уинстон, Тобиас Зантельман, Джеймс ЛеГрос, Делрой Линдо, Боджесси Кристофер, Клеменс Шик

    Описание:
    Джонни — молодой агент ФБР, специализирующийся на работе под прикрытием. Он не раз выходил из самых сложных ситуаций, всегда доделывая свою работу до конца. Его очередным заданием становится проникновение в банду воров. Однако эти люди не обычные грабители: их главным отличием от остальных является увлечение экстремальными видами спорта. Свои умения они используют при каждом новом ограблении, и стать частью их команды очень непросто. Чтобы войти в банду и остановить преступников, Джонни придется доказать, что он такой же как они, а для этого ему не раз предстоит рискнуть собственной жизнью…



    Продолжительность: 01:53:50
    Качество: UHD BDRemux (HDR)
    Перевод: Дублированный (Лицензия BD CEE), Авторский (одноголосый, закадровый) (Ю. Живов)
    Субтитры: Русские (forced, full), английские (SDH)

    Видео: HEVC/H.265, 3840x2160p, (16:9), 60,0 Мбит/сек, 23,976 fps
    Аудио: AC3, 6 ch, 640 kbps - Русский, Дубляж
    Аудио: DTS-HD MA, 8 ch, 4976 kbps - Русский, Ю. Живов
    Аудио: DTS-HD MA, 8 ch, 5104 kbps - Английский

    MediaInfo
    General
    Unique ID                                : 178617613693965890018106819830014984337 (0x86608046D526C4EA96FAD160B14AC091)
    Complete name                            : На гребне волны.2015.UHD.BluRay.Remux.2160p.mkv
    Format                                   : Matroska
    Format version                           : Version 4 / Version 2
    File size                                : 56.2 GiB
    Duration                                 : 1 h 53 min
    Overall bit rate                         : 70.7 Mb/s
    Encoded date                             : UTC 2017-11-19 18:11:40
    Writing application                      : mkvmerge v18.0.0 ("Apricity") 64-bit
    Writing library                          : libebml v1.3.5 + libmatroska v1.4.8
    Attachments                              : poster.jpg

    Video
    ID                                       : 1
    Format                                   : HEVC
    Format/Info                              : High Efficiency Video Coding
    Format profile                           : Main 10@L5.1@High
    Codec ID                                 : V_MPEGH/ISO/HEVC
    Duration                                 : 1 h 53 min
    Bit rate                                 : 60.0 Mb/s
    Width                                    : 3 840 pixels
    Height                                   : 2 160 pixels
    Display aspect ratio                     : 16:9
    Frame rate mode                          : Constant
    Frame rate                               : 23.976 (24000/1001) FPS
    Color space                              : YUV
    Chroma subsampling                       : 4:2:0 (Type 2)
    Bit depth                                : 10 bits
    Bits/(Pixel*Frame)                       : 0.302
    Stream size                              : 47.7 GiB (85%)
    Writing library                          : ATEME Titan KFE 3.7.3 (4.7.3.1003)
    Default                                  : Yes
    Forced                                   : No
    Color range                              : Limited
    Color primaries                          : BT.2020
    Transfer characteristics                 : SMPTE ST 2084
    Matrix coefficients                      : BT.2020 non-constant
    Mastering display color primaries        : R: x=0.680000 y=0.320000, G: x=0.265000 y=0.690000, B: x=0.150000 y=0.060000, White point: x=0.312700 y=0.329000
    Mastering display luminance              : min: 0.0050 cd/m2, max: 4000.0000 cd/m2
    Maximum Content Light Level              : 3293 cd/m2
    Maximum Frame-Average Light Level        : 581 cd/m2

    Audio #1
    ID                                       : 2
    Format                                   : AC-3
    Format/Info                              : Audio Coding 3
    Format settings, Endianness              : Big
    Codec ID                                 : A_AC3
    Duration                                 : 1 h 53 min
    Bit rate mode                            : Constant
    Bit rate                                 : 640 kb/s
    Channel(s)                               : 6 channels
    Channel positions                        : Front: L C R, Side: L R, LFE
    Sampling rate                            : 48.0 kHz
    Frame rate                               : 31.250 FPS (1536 SPF)
    Bit depth                                : 16 bits
    Compression mode                         : Lossy
    Stream size                              : 521 MiB (1%)
    Title                                    : Dub, Blu-Ray
    Language                                 : Russian
    Service kind                             : Complete Main
    Default                                  : Yes
    Forced                                   : No

    Audio #2
    ID                                       : 3
    Format                                   : DTS
    Format/Info                              : Digital Theater Systems
    Format profile                           : MA / Core
    Mode                                     : 16
    Format settings, Endianness              : Big
    Codec ID                                 : A_DTS
    Duration                                 : 1 h 53 min
    Bit rate mode                            : Variable / Constant
    Bit rate                                 : 4 976 kb/s / 1 509 kb/s
    Channel(s)                               : 8 channels / 6 channels
    Channel positions                        : Front: L C R, Side: L R, Back: L R, LFE / Front: L C R, Side: L R, LFE
    Sampling rate                            : 48.0 kHz
    Frame rate                               : 93.750 FPS (512 SPF)
    Bit depth                                : 24 bits
    Compression mode                         : Lossless / Lossy
    Stream size                              : 3.96 GiB (7%)
    Title                                    : Ю. Живов
    Language                                 : English
    Default                                  : No
    Forced                                   : No

    Audio #3
    ID                                       : 4
    Format                                   : DTS
    Format/Info                              : Digital Theater Systems
    Format profile                           : MA / Core
    Mode                                     : 16
    Format settings, Endianness              : Big
    Codec ID                                 : A_DTS
    Duration                                 : 1 h 53 min
    Bit rate mode                            : Variable / Constant
    Bit rate                                 : 5 104 kb/s / 1 509 kb/s
    Channel(s)                               : 8 channels / 6 channels
    Channel positions                        : Front: L C R, Side: L R, Back: L R, LFE / Front: L C R, Side: L R, LFE
    Sampling rate                            : 48.0 kHz
    Frame rate                               : 93.750 FPS (512 SPF)
    Bit depth                                : 24 bits
    Compression mode                         : Lossless / Lossy
    Stream size                              : 4.06 GiB (7%)
    Language                                 : English
    Default                                  : No
    Forced                                   : No

    Text #1
    ID                                       : 5
    Format                                   : UTF-8
    Codec ID                                 : S_TEXT/UTF8
    Codec ID/Info                            : UTF-8 Plain Text
    Duration                                 : 1 h 36 min
    Bit rate                                 : 1 b/s
    Count of elements                        : 29
    Stream size                              : 1.26 KiB (0%)
    Title                                    : forced
    Language                                 : Russian
    Default                                  : Yes
    Forced                                   : No

    Text #2
    ID                                       : 6
    Format                                   : UTF-8
    Codec ID                                 : S_TEXT/UTF8
    Codec ID/Info                            : UTF-8 Plain Text
    Duration                                 : 1 h 39 min
    Bit rate                                 : 58 b/s
    Count of elements                        : 778
    Stream size                              : 42.9 KiB (0%)
    Title                                    : full
    Language                                 : Russian
    Default                                  : No
    Forced                                   : No

    Text #3
    ID                                       : 7
    Format                                   : UTF-8
    Codec ID                                 : S_TEXT/UTF8
    Codec ID/Info                            : UTF-8 Plain Text
    Duration                                 : 1 h 37 min
    Bit rate                                 : 39 b/s
    Count of elements                        : 922
    Stream size                              : 28.3 KiB (0%)
    Title                                    : SDH
    Language                                 : English
    Default                                  : No
    Forced                                   : No

    Menu
    00:00:00.000                             : en:00:00:00.000
    00:10:11.820                             : en:00:10:11.820
    00:21:05.097                             : en:00:21:05.097
    00:29:20.926                             : en:00:29:20.926
    00:42:44.896                             : en:00:42:44.896
    00:50:05.794                             : en:00:50:05.794
    01:03:19.462                             : en:01:03:19.462
    01:12:43.943                             : en:01:12:43.943
    01:20:40.419                             : en:01:20:40.419
    01:27:14.521                             : en:01:27:14.521
    01:32:44.350                             : en:01:32:44.350
    01:39:02.603                             : en:01:39:02.603Свернуть


    Похожие раздачи Искать похожие
    Инструкция по скачиванию
     1  Качаем uTorrent версии 2.0 и выше
     2  После установки, жмем выше под постером на ссылку Скачать [MediaGet] или Скачать .torrent
     3  Открываем скачанный файл через соответствующий клиент: MediaGet или uTorrent
     4  Ждем пока подключатся участники
     5  Качаем
    Комментарии о  На гребне волны / Point Break | BDRemux 
    Ближайшее в кино
    Вверх