• Игры для PS4
  • Игры для PS3
  • Игры для XBOX360
  • Игры для PC
  • Игры для PS2
  • Игры для PSP
  • Для телефонов
  • Музыка
  • Книги / Журналы
  • Обои
  • Опрос
    Удобен ли сайт в использовании?
      0
    • Очень удобен, все понятно1,1,false,300,full
    • Удобен1,2,false,300,full
    • Средне1,3,false,300,full
    • Неудобен, трудно ориентироваться1,4,false,300,full
    • Совсем неудобен1,5,false,300,full
    Статистика
    Всего онлайн -
    Гостей -
    Пользователей -
    Короли трекера
    
    Благодарности () Закрыть
    Быстрее загружает сайты Экономит интернет—трафик Меняет оформление страницы ВК Блокирует всю рекламу на сайтах Загружает торренты как µTorrent клиент Объеденяет все твои чаты из соц. сетей в один Проигрывает твою музыку не заходя во ВКонтакте
    Новый интернет-браузер
    Оrbitum
    Скачать
    и многое другое... Подробности на сайте производителя
    Информация о фильме
    Название: Бездна
    Оригинальное название: The Deep
    Год выхода: 1977
    Жанр: триллер, детектив, приключения
    Режиссер: Питер Йетс
    В ролях: Роберт Шоу, Жаклин Биссет, Ник Нолти, Луис Госсет мл., Эли Уоллах, Дик Энтони Уильямс, Эрл Мэйнард, Боб Майнор, Тедди Таккер, Роберт Тессьер

    Описание: Супруги Гейл и Дэвид проводят отпуск на экзотическом бермудском острове. Во время подводной охоты им достается роскошная и опасная добыча: они находят затонувший испанский корабль, который набит несметными сокровищами.

    Искатели приключений и не подозревают, с чем им предстоит столкнуться в погоне за кладом. В конце концов, они оказываются на краю бездны, где любое неверное движение может стоить жизни.



    Страна: США
    Продолжительность: 02:04:30
    Перевод 1: Профессиональный (многоголосый закадровый) Видеосервис
    Перевод 2: Профессиональный (многоголосый закадровый) ОРТ
    Перевод 3: Профессиональный (дублированный) Мосфильм
    Перевод 4: Авторский (одноголосый закадровый) Живов
    Перевод 5: Авторский (одноголосый закадровый) Горчаков
    Перевод 6: Авторский (одноголосый закадровый) Гаврилов
    Субтитры: русские, английские
    Оригинальная аудиодорожка: английский

    Файл
    Качество: BDRemux 1080р
    Видео: AVC, 1920х1080 (16:9), 23,976 fps, 25,1 Mbps
    Аудио 1: AC3, 2.0 ch. stereo, 48 kHz, 192 kbps - MVO Видеосервис
    Аудио 2: AC3, 2.0 ch. mono, 48 kHz, 192 kbps - MVO ОРТ
    Аудио 3: AC3, 2.0 ch. mono, 48 kHz, 192 kbps - Дубляж Мосфильм
    Аудио 4: DTS-HD MA 5.1 (48 kHz / 2115 kbps / 16-bit) (DTS Core: 5.1 / 48 kHz / 1509 kbps / 16-bit) - Живов
    Аудио 5: AC3, 5.1 ch., 48 kHz, 640 kbps - Горчаков
    Аудио 6: AC3, 5.1 ch., 48 kHz, 448 kbps - Гаврилов
    Аудио 7: DTS-HD MA 5.1 (48 kHz / 2696 kbps / 24-bit) (DTS Core: 5.1 / 48 kHz / 1152 kbps / 24-bit) - English

    Скриншоты
    [screen]http://img12.lostpic.net/2018/01/06/605cb7ab8e6c411d00b59b374867e512.png[/screen][screen]http://img12.lostpic.net/2018/01/06/6c2bb470dff7fcaabc2778578481d6f0.png[/screen][screen]http://img12.lostpic.net/2018/01/06/ce7c15a09fc2d0c3ee94bdbf440599c1.png[/screen]Свернуть


    MediaInfo
    Общее
    Уникальный идентификатор : 242713974913949043034817527864814594298 (0xB69902DF5DD48FDC992C08B25569E8FA)
    Полное имя : Deep [1977 BDRemux].mkv
    Формат : Matroska
    Версия формата : Version 4 / Version 2
    Размер файла : 27,4 Гбайт
    Продолжительность : 2 ч. 4 м.
    Режим общего битрейта : Переменный
    Общий поток : 31,6 Мбит/сек
    Дата кодирования : UTC 2018-01-05 15:58:43
    Программа кодирования : mkvmerge v19.0.0 ("Brave Captain") 32-bit
    Библиотека кодирования : libebml v1.3.5 + libmatroska v1.4.8

    Видео
    Идентификатор : 1
    Формат : AVC
    Формат/Информация : Advanced Video Codec
    Профиль формата : High@L4.1
    Настройки формата : CABAC / 2 Ref Frames
    Параметр CABAC формата : Да
    Параметр RefFrames формата : 2 кадра
    Идентификатор кодека : V_MPEG4/ISO/AVC
    Продолжительность : 2 ч. 4 м.
    Вид битрейта : Переменный
    Битрейт : 25,1 Мбит/сек
    Ширина : 1920 пикселей
    Высота : 1080 пикселей
    Соотношение сторон : 16:9
    Режим частоты кадров : Постоянный
    Частота кадров : 23,976 (24000/1001) кадра/сек
    Цветовое пространство : YUV
    Субдискретизация насыщенности : 4:2:0
    Битовая глубина : 8 бит
    Тип развёртки : Прогрессивная
    Бит/(Пиксели*Кадры) : 0.504
    Размер потока : 21,8 Гбайт (79%)
    Default : Да
    Forced : Нет

    Аудио #1
    Идентификатор : 2
    Формат : AC-3
    Формат/Информация : Audio Coding 3
    Идентификатор кодека : A_AC3
    Продолжительность : 2 ч. 4 м.
    Вид битрейта : Постоянный
    Битрейт : 192 Кбит/сек
    Каналы : 2 канала
    Расположение каналов : Front: L R
    Частота : 48,0 КГц
    Частота кадров : 31,250 кадров/сек (1536 SPF)
    Битовая глубина : 16 бит
    Метод сжатия : С потерями
    Размер потока : 171 Мбайт (1%)
    Заголовок : MVO Videoservice
    Язык : Russian
    Default : Да
    Forced : Нет

    Аудио #2
    Идентификатор : 3
    Формат : AC-3
    Формат/Информация : Audio Coding 3
    Идентификатор кодека : A_AC3
    Продолжительность : 2 ч. 4 м.
    Вид битрейта : Постоянный
    Битрейт : 192 Кбит/сек
    Каналы : 2 канала
    Расположение каналов : Front: L R
    Частота : 48,0 КГц
    Частота кадров : 31,250 кадров/сек (1536 SPF)
    Битовая глубина : 16 бит
    Метод сжатия : С потерями
    Размер потока : 171 Мбайт (1%)
    Заголовок : MVO ORT
    Язык : Russian
    Default : Нет
    Forced : Нет

    Аудио #3
    Идентификатор : 4
    Формат : AC-3
    Формат/Информация : Audio Coding 3
    Идентификатор кодека : A_AC3
    Продолжительность : 2 ч. 4 м.
    Вид битрейта : Постоянный
    Битрейт : 192 Кбит/сек
    Каналы : 2 канала
    Расположение каналов : Front: L R
    Частота : 48,0 КГц
    Частота кадров : 31,250 кадров/сек (1536 SPF)
    Битовая глубина : 16 бит
    Метод сжатия : С потерями
    Размер потока : 171 Мбайт (1%)
    Заголовок : Dub
    Язык : Russian
    Default : Нет
    Forced : Нет

    Аудио #4
    Идентификатор : 5
    Формат : DTS
    Формат/Информация : Digital Theater Systems
    Профиль формата : MA / Core
    Идентификатор кодека : A_DTS
    Продолжительность : 2 ч. 4 м.
    Вид битрейта : Переменный / Постоянный
    Битрейт : 2115 Кбит/сек / 1509 Кбит/сек
    Каналы : 6 каналов
    Расположение каналов : Front: L C R, Side: L R, LFE
    Частота : 48,0 КГц
    Частота кадров : 93,750 кадра/сек (512 SPF)
    Битовая глубина : 16 бит
    Метод сжатия : Без потерь / Lossy
    Размер потока : 1,84 Гбайт (7%)
    Заголовок : Zhivov
    Язык : Russian
    Default : Нет
    Forced : Нет

    Аудио #5
    Идентификатор : 6
    Формат : AC-3
    Формат/Информация : Audio Coding 3
    Идентификатор кодека : A_AC3
    Продолжительность : 2 ч. 4 м.
    Вид битрейта : Постоянный
    Битрейт : 640 Кбит/сек
    Каналы : 6 каналов
    Расположение каналов : Front: L C R, Side: L R, LFE
    Частота : 48,0 КГц
    Частота кадров : 31,250 кадров/сек (1536 SPF)
    Битовая глубина : 16 бит
    Метод сжатия : С потерями
    Размер потока : 570 Мбайт (2%)
    Заголовок : Gorchakov
    Язык : Russian
    Default : Нет
    Forced : Нет

    Аудио #6
    Идентификатор : 7
    Формат : AC-3
    Формат/Информация : Audio Coding 3
    Идентификатор кодека : A_AC3
    Продолжительность : 2 ч. 4 м.
    Вид битрейта : Постоянный
    Битрейт : 448 Кбит/сек
    Каналы : 6 каналов
    Расположение каналов : Front: L C R, Side: L R, LFE
    Частота : 48,0 КГц
    Частота кадров : 31,250 кадров/сек (1536 SPF)
    Битовая глубина : 16 бит
    Метод сжатия : С потерями
    Размер потока : 399 Мбайт (1%)
    Заголовок : Gavrilov
    Язык : Russian
    Default : Нет
    Forced : Нет

    Аудио #7
    Идентификатор : 8
    Формат : DTS
    Формат/Информация : Digital Theater Systems
    Профиль формата : MA / Core
    Идентификатор кодека : A_DTS
    Продолжительность : 2 ч. 4 м.
    Вид битрейта : Переменный / Постоянный
    Битрейт : 2696 Кбит/сек / 1152 Кбит/сек
    Каналы : 6 каналов
    Расположение каналов : Front: L C R, Side: L R, LFE
    Частота : 48,0 КГц
    Частота кадров : 93,750 кадра/сек (512 SPF)
    Битовая глубина : 24 бит
    Метод сжатия : Без потерь / Lossy
    Размер потока : 2,34 Гбайт (9%)
    Язык : English
    Default : Нет
    Forced : Нет

    Текст #1
    Идентификатор : 9
    Формат : UTF-8
    Идентификатор кодека : S_TEXT/UTF8
    Идентификатор кодека/Информация : UTF-8 Plain Text
    Продолжительность : 1 ч. 53 м.
    Битрейт : 55 бит/сек
    ElementCount : 836
    Размер потока : 46,7 Кбайт (0%)
    Язык : Russian
    Default : Нет
    Forced : Нет

    Текст #2
    Идентификатор : 10
    Формат : UTF-8
    Идентификатор кодека : S_TEXT/UTF8
    Идентификатор кодека/Информация : UTF-8 Plain Text
    Продолжительность : 1 ч. 53 м.
    Битрейт : 36 бит/сек
    ElementCount : 836
    Размер потока : 30,8 Кбайт (0%)
    Язык : English
    Default : Нет
    Forced : Нет

    Меню
    00:00:00.000 : :Глава 01
    00:08:33.554 : :Глава 02
    00:16:56.182 : :Глава 03
    00:22:52.078 : :Глава 04
    00:29:13.669 : :Глава 05
    00:40:16.539 : :Глава 06
    00:47:18.293 : :Глава 07
    00:55:24.028 : :Глава 08
    01:12:44.819 : :Глава 09
    01:19:36.896 : :Глава 10
    01:26:58.921 : :Глава 11
    01:34:20.904 : :Глава 12
    01:41:07.019 : :Глава 13
    01:46:58.996 : :Глава 14
    01:54:33.992 : :Глава 15
    02:00:27.470 : :Глава 16Свернуть
    Похожие раздачи Искать похожие
    Инструкция по скачиванию
     1  Качаем uTorrent версии 2.0 и выше
     2  После установки, жмем выше под постером на ссылку Скачать [MediaGet] или Скачать .torrent
     3  Открываем скачанный файл через соответствующий клиент: MediaGet или uTorrent
     4  Ждем пока подключатся участники
     5  Качаем
    Комментарии о  Бездна / The Deep | BDRemux 1080p 
    Ближайшее в кино
    Вверх