• Игры для PS4
  • Игры для PS3
  • Игры для XBOX360
  • Игры для PC
  • Игры для PS2
  • Игры для PSP
  • Для телефонов
  • Музыка
  • Книги / Журналы
  • Обои
  • Опрос
    Удобен ли сайт в использовании?
      0
    • Очень удобен, все понятно1,1,false,300,full
    • Удобен1,2,false,300,full
    • Средне1,3,false,300,full
    • Неудобен, трудно ориентироваться1,4,false,300,full
    • Совсем неудобен1,5,false,300,full
    Статистика
    Всего онлайн -
    Гостей -
    Пользователей -
    Короли трекера
    
    Благодарности () Закрыть
    Быстрее загружает сайты Экономит интернет—трафик Меняет оформление страницы ВК Блокирует всю рекламу на сайтах Загружает торренты как µTorrent клиент Объеденяет все твои чаты из соц. сетей в один Проигрывает твою музыку не заходя во ВКонтакте
    Новый интернет-браузер
    Orbitum
    Скачать
    и многое другое... Подробности на сайте производителя
    Информация о фильме
    Название: Бегущий по лезвию 2049
    Оригинальное название: Blade Runner 2049
    Год выхода: 2017
    Жанр: Фантастика, триллер, драма, детектив
    Режиссер: Дэни Вильнёв
    В ролях: Райан Гослинг, Харрисон Форд, Ана де Армас, Джаред Лето, Сильвия Хукс, Дэйв Батиста, Робин Райт, Маккензи Дэвис, Карла Юри, Ленни Джеймс

    О фильме:
    В недалеком будущем мир населен людьми и репликантами, созданными выполнять самую тяжелую работу. Работа офицера полиции Кей — держать репликантов под контролем в условиях нарастающего напряжения… Пока он случайно не становится обладателем секретной информации, которая ставит под угрозу существование всего человечества. Желая найти ключ к разгадке, Кей решает разыскать Рика Декарда, бывшего офицера специального подразделения полиции Лос-Анджелеса, который бесследно исчез много лет назад...


    Страна: США, Великобритания, Канада, Венгрия
    Студия: Sony, Columbia Pictures, Warner Bros, Alcon Entertainment
    Продолжительность: 02:43:47
    Перевод: Дублированный (Лицензия)

    Файл
    Качество: BDRip 720p
    Видео: AVC, 1280x534 (2.40:1), 23.976 fps, 5 499 Kbps (0.336 bit/pixel)
    Звук:
    Аудио #1: AC-3, 48.0 KHz, 6 ch, 640 Kbps, CBR (Russian)
    Аудио #2: AC-3, 48.0 KHz, 6 ch, 640 Kbps, CBR (English)
    Субтитры: Русские, английские

    Скриншоты
    [screen]http://lostpix.com/img/2018-01/06/i7izjiganc1ndz1drc2nv3sh2.png[/screen][screen]http://lostpix.com/img/2018-01/06/t94nh1w705dahf1uiqkm9no13.png[/screen][screen]http://lostpix.com/img/2018-01/06/ltksl5reiy65v6y65wqd2pbe5.png[/screen][screen]http://lostpix.com/img/2018-01/06/26wdo8wz3d5a2z5nutcqp7c6a.png[/screen]Свернуть


    MI

    В ВИДЕОРЯДЕ НЕТ НИКАКОЙ ЛОКАЛИЗАЦИИ

    Полное имя                               : D:ФИЛЬМЫБегущий по лезвию 2049. (Р.Гослинг, Х.Форд).k.e.n & MegaPeer.mkv
    Формат                                   : Matroska
    Версия формата                           : Version 2
    Размер файла                             : 7,76 Гбайт
    Продолжительность                        : 2 ч. 43 м.
    Общий поток                              : 6781 Кбит/сек
    Название фильма                          : Blade Runner 2049 (2017)
    Дата кодирования                         : UTC 2018-01-06 13:00:18
    Программа кодирования                    : mkvmerge v5.3.0 ("I could have danced") built on Feb  9 2012 10:38:07
    Библиотека кодирования                   : libebml v1.2.3 + libmatroska v1.3.0
    Attachments                              : poster  (4).jpg

    Видео
    Идентификатор                            : 1
    Формат                                   : AVC
    Формат/Информация                        : Advanced Video Codec
    Профиль формата                          : High@L4.1
    Параметр CABAC формата                   : Да
    Параметр ReFrames формата                : 12 кадров
    Идентификатор кодека                     : V_MPEG4/ISO/AVC
    Продолжительность                        : 2 ч. 43 м.
    Битрейт                                  : 5499 Кбит/сек
    Ширина                                   : 1280 пикселей
    Высота                                   : 534 пикселя
    Соотношение сторон                       : 2,40:1
    Режим частоты кадров                     : Постоянный
    Частота кадров                           : 23,976 (24000/1001) кадра/сек
    Цветовое пространство                    : YUV
    Субдискретизация насыщенности            : 4:2:0
    Битовая глубина                          : 8 бит
    Тип развёртки                            : Прогрессивная
    Бит/(Пиксели*Кадры)                      : 0.336
    Размер потока                            : 6,14 Гбайт (79%)
    Библиотека кодирования                   : x264 core 146 r2538 121396c
    Настройки программы                      : cabac=1 / ref=12 / deblock=1:-3:-3 / analyse=0x3:0x133 / me=umh / subme=11 / psy=1 / psy_rd=1.02:0.10 / mixed_ref=1 / me_range=32 / chroma_me=1 / trellis=2 / 8x8dct=1 / cqm=0 / deadzone=21,11 / fast_pskip=0 / chroma_qp_offset=-3 / threads=12 / lookahead_threads=3 / sliced_threads=0 / nr=0 / decimate=0 / interlaced=0 / bluray_compat=0 / constrained_intra=0 / bframes=11 / b_pyramid=2 / b_adapt=2 / b_bias=0 / direct=3 / weightb=1 / open_gop=0 / weightp=2 / keyint=240 / keyint_min=23 / scenecut=40 / intra_refresh=0 / rc=2pass / mbtree=0 / bitrate=5499 / ratetol=1.0 / qcomp=0.60 / qpmin=0 / qpmax=69 / qpstep=4 / cplxblur=20.0 / qblur=0.5 / ip_ratio=1.40 / pb_ratio=1.30 / aq=3:0.90
    Язык                                     : English
    Default                                  : Да
    Forced                                   : Нет

    Аудио #1
    Идентификатор                            : 2
    Формат                                   : AC-3
    Формат/Информация                        : Audio Coding 3
    Расширение режима                        : CM (complete main)
    Параметр Endianness формата              : Big
    Идентификатор кодека                     : A_AC3
    Продолжительность                        : 2 ч. 43 м.
    Вид битрейта                             : Постоянный
    Битрейт                                  : 640 Кбит/сек
    Каналы                                   : 6 каналов
    Расположение каналов                     : Front: L C R, Side: L R, LFE
    Частота                                  : 48,0 КГц
    Частота кадров                           : 31,250 кадров/сек (1536 spf)
    Битовая глубина                          : 16 бит
    Метод сжатия                             : С потерями
    Размер потока                            : 750 Мбайт (9%)
    Заголовок                                : Дублированный (Лицензия)
    Язык                                     : Russian
    Default                                  : Да
    Forced                                   : Нет

    Аудио #2
    Идентификатор                            : 3
    Формат                                   : AC-3
    Формат/Информация                        : Audio Coding 3
    Расширение режима                        : CM (complete main)
    Параметр Endianness формата              : Big
    Идентификатор кодека                     : A_AC3
    Продолжительность                        : 2 ч. 43 м.
    Вид битрейта                             : Постоянный
    Битрейт                                  : 640 Кбит/сек
    Каналы                                   : 6 каналов
    Расположение каналов                     : Front: L C R, Side: L R, LFE
    Частота                                  : 48,0 КГц
    Частота кадров                           : 31,250 кадров/сек (1536 spf)
    Битовая глубина                          : 16 бит
    Метод сжатия                             : С потерями
    Размер потока                            : 750 Мбайт (9%)
    Заголовок                                : Original
    Язык                                     : English
    Default                                  : Нет
    Forced                                   : Нет

    Текст #1
    Идентификатор                            : 4
    Формат                                   : UTF-8
    Идентификатор кодека                     : S_TEXT/UTF8
    Идентификатор кодека/Информация          : UTF-8 Plain Text
    Заголовок                                : forced
    Язык                                     : Russian
    Default                                  : Да
    Forced                                   : Нет

    Текст #2
    Идентификатор                            : 5
    Формат                                   : UTF-8
    Идентификатор кодека                     : S_TEXT/UTF8
    Идентификатор кодека/Информация          : UTF-8 Plain Text
    Заголовок                                : full
    Язык                                     : Russian
    Default                                  : Нет
    Forced                                   : Нет

    Текст #3
    Идентификатор                            : 6
    Формат                                   : UTF-8
    Идентификатор кодека                     : S_TEXT/UTF8
    Идентификатор кодека/Информация          : UTF-8 Plain Text
    Заголовок                                : full Переведено студией Focs
    Язык                                     : Russian
    Default                                  : Нет
    Forced                                   : Нет

    Текст #4
    Идентификатор                            : 7
    Формат                                   : UTF-8
    Идентификатор кодека                     : S_TEXT/UTF8
    Идентификатор кодека/Информация          : UTF-8 Plain Text
    Заголовок                                : full
    Язык                                     : English
    Default                                  : Нет
    Forced                                   : Нет

    Текст #5
    Идентификатор                            : 8
    Формат                                   : UTF-8
    Идентификатор кодека                     : S_TEXT/UTF8
    Идентификатор кодека/Информация          : UTF-8 Plain Text
    Заголовок                                : SDH
    Язык                                     : English
    Default                                  : Нет
    Forced                                   : Нет

    Меню
    00:00:00.000                             : :00:00:00.000
    00:12:36.172                             : :00:12:36.172
    00:23:29.283                             : :00:23:29.283
    00:37:00.885                             : :00:37:00.885
    00:42:50.318                             : :00:42:50.318
    00:49:24.503                             : :00:49:24.503
    00:58:35.554                             : :00:58:35.554
    01:04:10.680                             : :01:04:10.680
    01:15:47.293                             : :01:15:47.293
    01:25:12.482                             : :01:25:12.482
    01:36:15.061                             : :01:36:15.061
    01:50:55.107                             : :01:50:55.107
    02:01:36.873                             : :02:01:36.873
    02:08:40.379                             : :02:08:40.379
    02:16:42.486                             : :02:16:42.486
    02:27:46.733                             : :02:27:46.733Свернуть
    Инструкция по скачиванию
     1  Качаем uTorrent версии 2.0 и выше
     2  После установки, жмем выше под постером на ссылку Скачать [MediaGet] или Скачать .torrent
     3  Открываем скачанный файл через соответствующий клиент: MediaGet или uTorrent
     4  Ждем пока подключатся участники
     5  Качаем
    Комментарии о  Бегущий по лезвию 2049 / Blade Runner 2049 | BDRip 720p 
    Ближайшее в кино
    Вверх