• Игры для PS4
  • Игры для PS3
  • Игры для XBOX360
  • Игры для PC
  • Игры для PS2
  • Игры для PSP
  • Для телефонов
  • Музыка
  • Книги / Журналы
  • Обои
  • Опрос
    Удобен ли сайт в использовании?
      0
    • Очень удобен, все понятно1,1,false,300,full
    • Удобен1,2,false,300,full
    • Средне1,3,false,300,full
    • Неудобен, трудно ориентироваться1,4,false,300,full
    • Совсем неудобен1,5,false,300,full
    Статистика
    Всего онлайн -
    Гостей -
    Пользователей -
    Короли трекера
    
    Благодарности () Закрыть
    Быстрее загружает сайты Экономит интернет—трафик Меняет оформление страницы ВК Блокирует всю рекламу на сайтах Загружает торренты как µTorrent клиент Объеденяет все твои чаты из соц. сетей в один Проигрывает твою музыку не заходя во ВКонтакте
    Новый интернет-браузер
    Оrbitum
    Скачать
    и многое другое... Подробности на сайте производителя
    Информация о фильме
    Название: Счастливого Рождества
    Оригинальное название: Joyeux Noël
    Год выхода: 2005
    Жанр: Драма, мелодрама, военный, история, музыка, рождество
    Режиссер: Кристиан Карион
    В ролях: Дайан Крюгер, Бенно Фюрман, Гийом Кане, Гари Льюис, Даниэль Брюль, Дани Бун, Алекс Фернс, Стивен Робертсон, Бернар Ле Кок, Томас Шмаузер

    О фильме:
    В канун Рождества 1914 года четверо людей пережили незабываемое. Шотландский священник, французский лейтенант, немецкий тенор и его возлюбленная оказались в самом сердце спонтанного братства, возникшего между траншеями немцев, англичан и французов. Ружья были оставлены на дне окопов, а сами солдаты и офицеры вышли навстречу друг другу, чтобы обменяться сигаретами, разделить шоколад и пожелать друг другу: «Счастливого Рождества!»


    Выпущено: Франция, Германия, Великобритания, Бельгия, Румыния, Норвегия, Япония, Nord-Ouest Productions
    Продолжительность: 01:55:58
    Перевод: Профессиональный многоголосый

    Файл
    Кодек: H.264
    Качество: BDRip (AVC)
    Видео: MPEG-4 AVC, 827 Кбит/с, 720x306
    Звук: Русский (AAC, 2 ch, 72 Кбит/с)
    Субтитры: Русские

    MediaInfo
    Видео
    Идентификатор                            : 1
    Формат                                   : AVC
    Формат/Информация                        : Advanced Video Codec
    Профиль формата                          : High@L4.1
    Параметр CABAC формата                   : Да
    Параметр ReFrames формата                : 10 кадров
    Идентификатор кодека                     : V_MPEG4/ISO/AVC
    Продолжительность                        : 1 ч. 55 м.
    Битрейт                                  : 827 Кбит/сек
    Ширина                                   : 720 пикселей
    Высота                                   : 306 пикселей
    Соотношение сторон                       : 2,35:1
    Режим частоты кадров                     : Постоянный
    Частота кадров                           : 23,976 (24000/1001) кадра/сек
    Цветовое пространство                    : YUV
    Субдискретизация насыщенности            : 4:2:0
    Битовая глубина                          : 8 бит
    Тип развёртки                            : Прогрессивная
    Бит/(Пиксели*Кадры)                      : 0.157
    Размер потока                            : 685 Мбайт (92%)
    Заголовок                                : ExKinoRay
    Библиотека кодирования                   : x264 core 152 r2851 ba24899
    Настройки программы                      : cabac=1 / ref=10 / deblock=1:-2:-2 / analyse=0x3:0x133 / me=umh / subme=11 / psy=1 / psy_rd=1.00:0.00 / mixed_ref=1 / me_range=32 / chroma_me=1 / trellis=2 / 8x8dct=1 / cqm=0 / deadzone=21,11 / fast_pskip=0 / chroma_qp_offset=-3 / threads=6 / lookahead_threads=1 / sliced_threads=0 / nr=0 / decimate=0 / interlaced=0 / bluray_compat=0 / constrained_intra=0 / bframes=10 / b_pyramid=2 / b_adapt=2 / b_bias=0 / direct=3 / weightb=1 / open_gop=0 / weightp=2 / keyint=240 / keyint_min=23 / scenecut=40 / intra_refresh=0 / rc_lookahead=40 / rc=2pass / mbtree=0 / bitrate=827 / ratetol=1.0 / qcomp=0.60 / qpmin=0 / qpmax=69 / qpstep=4 / cplxblur=20.0 / qblur=0.5 / vbv_maxrate=50000 / vbv_bufsize=62500 / nal_hrd=none / filler=0 / ip_ratio=1.40 / pb_ratio=1.30 / aq=2:1.00
    Язык                                     : French
    Default                                  : Да
    Forced                                   : Нет

    Аудио
    Идентификатор                            : 2
    Формат                                   : AAC
    Формат/Информация                        : Advanced Audio Codec
    Профиль формата                          : LC
    Идентификатор кодека                     : A_AAC
    Продолжительность                        : 1 ч. 55 м.
    Битрейт                                  : 72,0 Кбит/сек
    Каналы                                   : 2 канала
    Расположение каналов                     : Front: L R
    Частота                                  : 48,0 КГц
    Частота кадров                           : 46,875 кадров/сек (1024 spf)
    Метод сжатия                             : С потерями
    Задержка видео                           : 9 мс.
    Размер потока                            : 59,7 Мбайт (8%)
    Язык                                     : Russian
    Default                                  : Да
    Forced                                   : Нет

    Текст
    Идентификатор                            : 3
    Формат                                   : UTF-8
    Идентификатор кодека                     : S_TEXT/UTF8
    Идентификатор кодека/Информация          : UTF-8 Plain Text
    Продолжительность                        : 1 ч. 45 м.
    Битрейт                                  : 54 бит/сек
    Count of elements                        : 862
    Размер потока                            : 42,1 Кбайт (0%)
    Язык                                     : Russian
    Default                                  : Нет
    Forced                                   : Нет

    Меню
    00:00:00.000                             : :Chapter 01
    00:08:08.654                             : :Chapter 02
    00:17:04.440                             : :Chapter 03
    00:27:25.560                             : :Chapter 04
    00:36:07.707                             : :Chapter 05
    00:45:13.502                             : :Chapter 06
    00:55:05.468                             : :Chapter 07
    01:06:01.958                             : :Chapter 08
    01:13:47.256                             : :Chapter 09
    01:23:22.706                             : :Chapter 10
    01:32:43.099                             : :Chapter 11
    01:41:14.276                             : :Chapter 12
    01:48:07.981                             : :Chapter 13
    01:55:58.326                             : :Chapter 14
    Свернуть


    Скриншоты
    [screen]http://lostpix.com/img/2018-01/06/nlbinmsf2r62sk48ik5png6q2.png[/screen][screen]http://lostpix.com/img/2018-01/06/algdlsqwuza7hgyzbpimjfvta.png[/screen]
    [screen]http://lostpix.com/img/2018-01/06/g79hoy2pyx4foht8if1my8s59.png[/screen][screen]http://lostpix.com/img/2018-01/06/ko2mz1zvas0qivilyla9nou3u.png[/screen]Свернуть
    Инструкция по скачиванию
     1  Качаем uTorrent версии 2.0 и выше
     2  После установки, жмем выше под постером на ссылку Скачать [MediaGet] или Скачать .torrent
     3  Открываем скачанный файл через соответствующий клиент: MediaGet или uTorrent
     4  Ждем пока подключатся участники
     5  Качаем
    Комментарии о  Счастливого Рождества / Joyeux Noël / Merry Christmas | BDRip-AVC 
    Ближайшее в кино
    Вверх