• Игры для PS4
  • Игры для PS3
  • Игры для XBOX360
  • Игры для PC
  • Игры для PS2
  • Игры для PSP
  • Для телефонов
  • Музыка
  • Книги / Журналы
  • Обои
  • Опрос
    Откуда Вы о нас узнали?
      0
    • От знакомых2,1,false,300,full
    • Из социальных сетей2,2,false,300,full
    • Из поисковых систем2,3,false,300,full
    • Другое2,4,false,300,full
    Статистика
    Всего онлайн -
    Гостей -
    Пользователей -
    Короли трекера
    
    Благодарности () Закрыть
    Быстрее загружает сайты Экономит интернет—трафик Меняет оформление страницы ВК Блокирует всю рекламу на сайтах Загружает торренты как µTorrent клиент Объеденяет все твои чаты из соц. сетей в один Проигрывает твою музыку не заходя во ВКонтакте
    Новый интернет-браузер
    Оrbitum
    Скачать
    и многое другое... Подробности на сайте производителя
    Информация о фильме
    Название: 13-й воин
    Оригинальное название: The 13th Warrior
    Год выхода: 1999
    Жанр: Боевик, Приключения, Исторический
    Режиссер: Джон Мактирнан
    В ролях: Антонио Бандерас, Владимир Кулич, Дайэн Венора, Омар Шариф, Дэннис Сторхо, Нил Маффин, Джон ДеСантис

    О фильме:
    Ахмед ибн Фахдлан, утонченный аристократ и поэт, в наказание за любовь отправился посланником цивилизованного Востока на варварский Север, к диким и необузданным викингам. Эти храбрые воины готовились к походу против таинственного племени Пожирателей Трупов, опустошающего деревни и оставляющего после себя груду человеческих скелетов.По древнему поверью, только тринадцать воинов могут одолеть звероподобного врага. Но, чтобы пророчество сбылось, один из смельчаков должен быть чужестранцем… Волей счастливого случая или зловещего рока, бывший поэт, а ныне тринадцатый воин берет в руки оружие и отправляется туда, где умолкают даже неустрашимые викинги, чтобы случайно не назвать свой страх по имени.



    Страна: США
    Студия: Студия-изготовитель, если известна
    Продолжительность: 01:42:46
    Перевод: Дубляж, Профессиональный Многоголосый закадровый-Superbit, Авторский одноголосый закадровый-А. Гаврилов, «Гоблин» Пучков

    “Minfo”

    General
    Unique ID                      : 145784406956788460783593460853624559913 (0x6DAD0E33D31C25EDA38A5BA0FEC05929)
    Complete name                  : C:UsersstimcoDesktoptest_bdrThe 13th Warrior.1999.BDRip_1080.CEdition.stimco.mkv
    Format                         : Matroska
    Format version                 : Version 4 / Version 2
    File size                      : 12.7 GiB
    Duration                       : 1 h 42 min
    Overall bit rate               : 17.7 Mb/s
    Movie name                     : =The 13th Warrior=
    Encoded date                   : UTC 2018-01-06 09:24:37
    Writing application            : mkvmerge v19.0.0 ("Brave Captain") 64-bit
    Writing library                : libebml v1.3.5 + libmatroska v1.4.8

    Video
    ID                             : 1
    Format                         : AVC
    Format/Info                    : Advanced Video Codec
    Format profile                 : High@L4.1
    Format settings                : CABAC / 5 Ref Frames
    Format settings, CABAC         : Yes
    Format settings, ReFrames      : 5 frames
    Codec ID                       : V_MPEG4/ISO/AVC
    Duration                       : 1 h 42 min
    Bit rate                       : 12.0 Mb/s
    Width                          : 1 920 pixels
    Height                         : 816 pixels
    Display aspect ratio           : 2.35:1
    Frame rate mode                : Constant
    Frame rate                     : 23.976 (24000/1001) FPS
    Color space                    : YUV
    Chroma subsampling             : 4:2:0
    Bit depth                      : 8 bits
    Scan type                      : Progressive
    Bits/(Pixel*Frame)             : 0.321
    Stream size                    : 8.64 GiB (68%)
    Title                          : The 13th Warrior (1080p) =stimco=
    Writing library                : x264 core 155 r2893 b00bcaf
    Encoding settings              : cabac=1 / ref=5 / deblock=1:-3:-3 / analyse=0x3:0x133 / me=umh / subme=10 / psy=1 / psy_rd=1.00:0.10 / mixed_ref=1 / me_range=40 / chroma_me=1 / trellis=2 / 8x8dct=1 / cqm=0 / deadzone=21,11 / fast_pskip=1 / chroma_qp_offset=-2 / threads=6 / lookahead_threads=1 / sliced_threads=0 / nr=0 / decimate=1 / interlaced=0 / bluray_compat=0 / constrained_intra=0 / bframes=8 / b_pyramid=2 / b_adapt=2 / b_bias=0 / direct=1 / weightb=1 / open_gop=0 / weightp=2 / keyint=230 / keyint_min=23 / scenecut=40 / intra_refresh=0 / rc_lookahead=55 / rc=crf / mbtree=1 / crf=17.0 / qcomp=0.60 / qpmin=0 / qpmax=63 / qpstep=4 / vbv_maxrate=62500 / vbv_bufsize=78125 / crf_max=0.0 / nal_hrd=none / filler=0 / ip_ratio=1.35 / aq=1:0.80
    Language                       : English
    Default                        : Yes
    Forced                         : No

    Audio #1
    ID                             : 2
    Format                         : AC-3
    Format/Info                    : Audio Coding 3
    Codec ID                       : A_AC3
    Duration                       : 1 h 42 min
    Bit rate mode                  : Constant
    Bit rate                       : 384 kb/s
    Channel(s)                     : 6 channels
    Channel positions              : Front: L C R, Side: L R, LFE
    Sampling rate                  : 48.0 kHz
    Frame rate                     : 31.250 FPS (1536 SPF)
    Bit depth                      : 16 bits
    Compression mode               : Lossy
    Stream size                    : 282 MiB (2%)
    Title                          : dub
    Language                       : Russian
    Service kind                   : Complete Main
    Default                        : Yes
    Forced                         : No

    Audio #2
    ID                             : 3
    Format                         : DTS
    Format/Info                    : Digital Theater Systems
    Codec ID                       : A_DTS
    Duration                       : 1 h 42 min
    Bit rate mode                  : Constant
    Bit rate                       : 755 kb/s
    Channel(s)                     : 6 channels
    Channel positions              : Front: L C R, Side: L R, LFE
    Sampling rate                  : 48.0 kHz
    Frame rate                     : 93.750 FPS (512 SPF)
    Bit depth                      : 24 bits
    Compression mode               : Lossy
    Stream size                    : 555 MiB (4%)
    Title                          : mvo Superbit
    Language                       : Russian
    Default                        : No
    Forced                         : No

    Audio #3
    ID                             : 4
    Format                         : DTS
    Format/Info                    : Digital Theater Systems
    Codec ID                       : A_DTS
    Duration                       : 1 h 42 min
    Bit rate mode                  : Constant
    Bit rate                       : 1 510 kb/s
    Channel(s)                     : 6 channels
    Channel positions              : Front: L C R, Side: L R, LFE
    Sampling rate                  : 48.0 kHz
    Frame rate                     : 93.750 FPS (512 SPF)
    Bit depth                      : 24 bits
    Compression mode               : Lossy
    Stream size                    : 1.08 GiB (9%)
    Title                          : avo Gavcrilov
    Language                       : Russian
    Default                        : No
    Forced                         : No

    Audio #4
    ID                             : 5
    Format                         : DTS
    Format/Info                    : Digital Theater Systems
    Codec ID                       : A_DTS
    Duration                       : 1 h 42 min
    Bit rate mode                  : Constant
    Bit rate                       : 1 510 kb/s
    Channel(s)                     : 6 channels
    Channel positions              : Front: L C R, Side: L R, LFE
    Sampling rate                  : 48.0 kHz
    Frame rate                     : 93.750 FPS (512 SPF)
    Bit depth                      : 24 bits
    Compression mode               : Lossy
    Stream size                    : 1.08 GiB (9%)
    Title                          : avo Goblin
    Language                       : Russian
    Default                        : No
    Forced                         : No

    Audio #5
    ID                             : 6
    Format                         : DTS
    Format/Info                    : Digital Theater Systems
    Codec ID                       : A_DTS
    Duration                       : 1 h 42 min
    Bit rate mode                  : Constant
    Bit rate                       : 1 509 kb/s
    Channel(s)                     : 6 channels
    Channel positions              : Front: L C R, Side: L R, LFE
    Sampling rate                  : 48.0 kHz
    Frame rate                     : 93.750 FPS (512 SPF)
    Bit depth                      : 24 bits
    Compression mode               : Lossy
    Stream size                    : 1.08 GiB (9%)
    Title                          : eng
    Language                       : English
    Default                        : No
    Forced                         : No

    Text #1
    ID                             : 7
    Format                         : UTF-8
    Codec ID                       : S_TEXT/UTF8
    Codec ID/Info                  : UTF-8 Plain Text
    Duration                       : 1 h 37 min
    Bit rate                       : 42 b/s
    Count of elements              : 691
    Stream size                    : 30.4 KiB (0%)
    Title                          : rus
    Language                       : Russian
    Default                        : No
    Forced                         : No

    Text #2
    ID                             : 8
    Format                         : UTF-8
    Codec ID                       : S_TEXT/UTF8
    Codec ID/Info                  : UTF-8 Plain Text
    Duration                       : 1 h 36 min
    Bit rate                       : 28 b/s
    Count of elements              : 707
    Stream size                    : 20.1 KiB (0%)
    Title                          : eng
    Language                       : English
    Default                        : No
    Forced                         : No

    Menu
    00:00:00.000                   : :00:00:00.000
    00:05:00.000                   : :00:05:00.000
    00:10:00.000                   : :00:10:00.000
    00:15:00.000                   : :00:15:00.000
    00:20:00.000                   : :00:20:00.000
    00:25:00.000                   : :00:25:00.000
    00:30:00.000                   : :00:30:00.000
    00:35:00.000                   : :00:35:00.000
    00:40:00.000                   : :00:40:00.000
    00:45:00.000                   : :00:45:00.000
    00:50:00.000                   : :00:50:00.000
    00:55:00.000                   : :00:55:00.000
    01:00:00.000                   : :01:00:00.000Свернуть




    Файл
    Кодек: x264
    Качество: BDRip 1080p
    Видео: 1920x816, 23.976 fps, 12000 kbps
    Звук:
    AC3, 384 kb/s (6Ch)-Дубляж-ВидеоСервис
    DTS, 768 kb/s (6Ch)-Superbit
    DTS, 1536 kb/s (6Ch)-А. Гаврилов
    DTS, 1536 kb/s (6Ch)-«Гоблин» Пучков
    DTS, 1536 kb/s (6Ch)-Оригинал
    Субтитры: русские, английские

    Скриншоты
    [screen]http://img12.lostpic.net/2018/01/06/5b0b60851fa976f06b48f3b2613bfbd2.png[/screen][screen]http://img12.lostpic.net/2018/01/06/3369de045fd0f0562f2b7f39244a7af7.png[/screen][screen]http://img12.lostpic.net/2018/01/06/332d64c9f6780f3c0351a97ee4f67a25.png[/screen][screen]http://img12.lostpic.net/2018/01/06/f951c35e7b808eea7b14f3e1af991aed.png[/screen]Свернуть
    Похожие раздачи Искать похожие
    Инструкция по скачиванию
     1  Качаем uTorrent версии 2.0 и выше
     2  После установки, жмем выше под постером на ссылку Скачать [MediaGet] или Скачать .torrent
     3  Открываем скачанный файл через соответствующий клиент: MediaGet или uTorrent
     4  Ждем пока подключатся участники
     5  Качаем
    Комментарии о  13-й воин / The 13th Warrior | BDRip 1080p 
    Ближайшее в кино
    Вверх