• Игры для PS4
  • Игры для PS3
  • Игры для XBOX360
  • Игры для PC
  • Игры для PS2
  • Игры для PSP
  • Для телефонов
  • Музыка
  • Книги / Журналы
  • Обои
  • Опрос
    Откуда Вы о нас узнали?
      0
    • От знакомых2,1,false,300,full
    • Из социальных сетей2,2,false,300,full
    • Из поисковых систем2,3,false,300,full
    • Другое2,4,false,300,full
    Статистика
    Всего онлайн -
    Гостей -
    Пользователей -
    Короли трекера
    
    Благодарности () Закрыть
    Быстрее загружает сайты Экономит интернет—трафик Меняет оформление страницы ВК Блокирует всю рекламу на сайтах Загружает торренты как µTorrent клиент Объеденяет все твои чаты из соц. сетей в один Проигрывает твою музыку не заходя во ВКонтакте
    Новый интернет-браузер
    Orbitum
    Скачать
    и многое другое... Подробности на сайте производителя
    The Stranger Wore a Gun
    «THE SCREEN"S GREATEST OUTDOOR STAR»


    Страна: США
    Жанр: вестерн, военный
    Год выпуска: 1953
    Продолжительность: 01:22:07
    Перевод: Любительский (одноголосый)
    Субтитры: английские.

    Режиссер: Андре Де Тот / Andre De Toth

    В ролях: Рэндольф Скотт, Клер Тревор, Джоан Уэлдон, Джордж Макреди, Альфонсо Бедойа (Degas), Ли Марвин (Dan Kurth), Эрнест Боргнайн, Пьер Уаткин (Jason Conroy), Джозеф Витале (Shorty), Клем Беванс (Jim Martin), Виктор Адамсон (Barfly, в титрах не указан), Ричард Александр (Townsman, в титрах не указан)

    Описание: Во время Гражданской войны Джеф Тревис воевал на стороне конфедератов. Но мирная жизнь заставила его пересмотреть свои взгляды и он выступает против своих бывших товарищей на стороне своих бывших врагов.

    Семпл

    [img]http://s019.radikal.ru/i600/1711/8f/3be4def2f3bd.gif[/img]

    Качество: BDRip 1080p
    Контейнер: MKV

    Видео: AVC, 1440x1080 (4:3), 10545 kbps, 23,976 fps, 0,283 bpp
    Аудио №1: русский / AC3 / 2.0 / 48 kHz / 192 kbps / VO
    Аудио №2: английский / AC3 / 2.0 / 48 kHz / 192 kbps
    Навигация по главам: есть

    Media Info


    Формат                                   : Matroska
    Версия формата                           : Version 2
    Размер файла                             : 6,40 Гбайт
    Продолжительность                        : 1 ч. 22 м.
    Общий поток                              : 11,2 Мбит/сек
    Название фильма                          : = Незнакомец с револьвером / The Stranger Wore a Gun (1953) BDRip 1080p - KORSAR =
    Дата кодирования                         : UTC 2018-01-05 18:26:13
    Программа кодирования                    : mkvmerge v5.8.0 ("No Sleep / Pillow") built on Sep  2 2012 15:37:04
    Библиотека кодирования                   : libebml v1.2.3 + libmatroska v1.3.0
    Attachment                               : Yes

    Видео
    Идентификатор                            : 1
    Формат                                   : AVC
    Формат/Информация                        : Advanced Video Codec
    Профиль формата                          : High@L4.1
    Параметр CABAC формата                   : Да
    Параметр ReFrames формата                : 4 кадра
    Идентификатор кодека                     : V_MPEG4/ISO/AVC
    Продолжительность                        : 1 ч. 22 м.
    Битрейт                                  : 10,5 Мбит/сек
    Ширина                                   : 1440 пикселей
    Высота                                   : 1080 пикселей
    Соотношение сторон                       : 4:3
    Режим частоты кадров                     : Постоянный
    Частота кадров                           : 23,976 кадра/сек
    Цветовое пространство                    : YUV
    Субдискретизация насыщенности            : 4:2:0
    Битовая глубина                          : 8 бит
    Тип развёртки                            : Прогрессивная
    Бит/(Пиксели*Кадры)                      : 0.283
    Размер потока                            : 6,05 Гбайт (95%)
    Заголовок                                : Незнакомец с револьвером / The Stranger Wore a Gun (1953) BDRip 1080p - KORSAR
    Библиотека кодирования                   : x264 core 148 r2744kMod b97ae06
    Настройки программы                      : cabac=1 / ref=4 / deblock=1:-2:-2 / analyse=0x3:0x113 / me=umh / subme=11 / psy=1 / fade_compensate=0.00 / psy_rd=1.00:0.00 / mixed_ref=1 / me_range=32 / chroma_me=1 / trellis=2 / 8x8dct=1 / cqm=0 / deadzone=21,11 / fast_pskip=0 / chroma_qp_offset=-2 / threads=12 / lookahead_threads=2 / sliced_threads=0 / nr=0 / decimate=1 / interlaced=0 / bluray_compat=0 / constrained_intra=0 / bframes=8 / b_pyramid=2 / b_adapt=2 / b_bias=0 / direct=3 / weightb=1 / open_gop=0 / weightp=2 / keyint=240 / keyint_min=23 / scenecut=40 / intra_refresh=0 / rc_lookahead=60 / rc=crf / mbtree=0 / crf=18.6000 / qcomp=0.60 / qpmin=0 / qpmax=39 / qpstep=4 / vbv_maxrate=50000 / vbv_bufsize=62500 / crf_max=0.0 / nal_hrd=none / filler=0 / ip_ratio=1.40 / pb_ratio=1.30 / aq=1:1.00
    Язык                                     : English
    Default                                  : Да
    Forced                                   : Нет
    Основные цвета                           : BT.709
    Характеристики трансфера                 : BT.709
    Коэффициенты матрицы                     : BT.709

    Аудио #1
    Идентификатор                            : 2
    Формат                                   : AC-3
    Формат/Информация                        : Audio Coding 3
    Расширение режима                        : CM (complete main)
    Параметр Endianness формата              : Big
    Идентификатор кодека                     : A_AC3
    Продолжительность                        : 1 ч. 22 м.
    Вид битрейта                             : Постоянный
    Битрейт                                  : 192 Кбит/сек
    Каналы                                   : 2 канала
    Расположение каналов                     : Front: L R
    Частота                                  : 48,0 КГц
    Битовая глубина                          : 16 бит
    Метод сжатия                             : С потерями
    Размер потока                            : 113 Мбайт (2%)
    Заголовок                                : VO
    Язык                                     : Russian
    Default                                  : Да
    Forced                                   : Нет

    Аудио #2
    Идентификатор                            : 3
    Формат                                   : AC-3
    Формат/Информация                        : Audio Coding 3
    Расширение режима                        : CM (complete main)
    Параметр Endianness формата              : Big
    Идентификатор кодека                     : A_AC3
    Продолжительность                        : 1 ч. 22 м.
    Вид битрейта                             : Постоянный
    Битрейт                                  : 192 Кбит/сек
    Каналы                                   : 2 канала
    Расположение каналов                     : Front: L R
    Частота                                  : 48,0 КГц
    Битовая глубина                          : 16 бит
    Метод сжатия                             : С потерями
    Размер потока                            : 113 Мбайт (2%)
    Язык                                     : English
    Default                                  : Нет
    Forced                                   : Нет

    Текст
    Идентификатор                            : 4
    Формат                                   : UTF-8
    Идентификатор кодека                     : S_TEXT/UTF8
    Идентификатор кодека/Информация          : UTF-8 Plain Text
    Default                                  : Нет
    Forced                                   : Нет

    Меню
    00:00:00.000                             : en:00:00:00.000
    00:01:17.327                             : en:00:01:17.327
    00:06:56.124                             : en:00:06:56.124
    00:12:36.339                             : en:00:12:36.339
    00:23:28.324                             : en:00:23:28.324
    00:29:31.520                             : en:00:29:31.520
    00:35:57.197                             : en:00:35:57.197
    00:42:35.762                             : en:00:42:35.762
    00:47:32.933                             : en:00:47:32.933
    00:56:10.784                             : en:00:56:10.784
    01:08:37.447                             : en:01:08:37.447
    Свернуть


    Скриншоты

    [screen]http://img12.lostpic.net/2018/01/06/cc8b3185f207a7328276a327afb3beb1.png[/screen][screen]http://img12.lostpic.net/2018/01/06/bfa7402f636ebf7fe71c6d6f34aa05fa.png[/screen][screen]http://img12.lostpic.net/2018/01/06/da2ef830899d1936298f0c4328c4cde6.png[/screen][screen]http://img12.lostpic.net/2018/01/06/9d0b91ff6785b7ff6f73e8af47d02d52.png[/screen]
    [screen]http://img12.lostpic.net/2018/01/06/bc03f36b6e97e02d736f70ea5033ca05.png[/screen][screen]http://img12.lostpic.net/2018/01/06/865e8854dc3b1aa46f8fc0779728c694.png[/screen][screen]http://img12.lostpic.net/2018/01/06/29d6c26a6cfa4ba60174b37839eb1aa6.png[/screen][screen]http://img12.lostpic.net/2018/01/06/ac22152037ca84840baa245b5bdbf5a5.png[/screen]
    Свернуть
    Инструкция по скачиванию
     1  Качаем uTorrent версии 2.0 и выше
     2  После установки, жмем выше под постером на ссылку Скачать [MediaGet] или Скачать .torrent
     3  Открываем скачанный файл через соответствующий клиент: MediaGet или uTorrent
     4  Ждем пока подключатся участники
     5  Качаем
    Комментарии о  Незнакомец с револьвером / The Stranger Wore a Gun | BDRip 1080p 
    Ближайшее в кино
    Вверх