• Игры для PS4
  • Игры для PS3
  • Игры для XBOX360
  • Игры для PC
  • Игры для PS2
  • Игры для PSP
  • Для телефонов
  • Музыка
  • Книги / Журналы
  • Обои
  • Опрос
    Откуда Вы о нас узнали?
      0
    • От знакомых2,1,false,300,full
    • Из социальных сетей2,2,false,300,full
    • Из поисковых систем2,3,false,300,full
    • Другое2,4,false,300,full
    Статистика
    Всего онлайн -
    Гостей -
    Пользователей -
    Короли трекера
    
    Благодарности () Закрыть
    Быстрее загружает сайты Экономит интернет—трафик Меняет оформление страницы ВК Блокирует всю рекламу на сайтах Загружает торренты как µTorrent клиент Объеденяет все твои чаты из соц. сетей в один Проигрывает твою музыку не заходя во ВКонтакте
    Новый интернет-браузер
    Оrbitum
    Скачать
    и многое другое... Подробности на сайте производителя
    Информация о фильме
    Оригинальное название: Лачуга должника
    Год выпуска: 2017
    Жанр:  Драма, научная фантастика, экранизация
    Режиссер: Александр Котт
    В ролях: Павел Деревянко, Евгений Пронин, Ирина Старшенбаум, Олег Чугунов, Евгений Стычкин, Сергей Бурунов, Сергей Романович, Мирон Тарасов, Елена Руфанова, Снежана Тулубьева, Евгений Серзин, Сергей Паршин, Фёдор Лавров, Владимир Маслаков, Владимир Волков (VIII), Андрей Лёвин, Эмилия Спивак, Наталья Суркова, Вадим Сквирский, Ромуальд Макаренко, Александр Нестеров (IV), Алексей Суренский, Валерий Кухарешин, Александр Карпухов, Алексей Одинг, Сергей Барковский

    О фильме:
    Летом 1940 года трое мальчишек находят в песке странную металлическую капсулу. После случайной гибели Петра его брат-близнец Павел и третий мальчик - Виктор, надолго забывают о находке и жидкости из капсулы, которую они вместе выпили... Год за годом герои стремятся к своим целям: Виктор к власти, Павел – к зеркальной планете. XXIII век. На Земле воцарился коммунизм. Павел Белобрысов – человек, получивший возможность прожить миллион лет, отправляется в экспедицию, посвященную поиску планеты Ялмез, зеркально отражающей жизнь на Земле. Там он надеется отыскать своего давным-давно умершего брата-близнеца…



    Страна: Россия
    Студия: Продюсерский центр «Среда»
    Продолжительность: ~00:52:00 серия

    Файл
    Кодек: h.264
    Качество видео: WEB-DL 1080p
    Видео: AVC/H.264, 1920x1080 (16:9), ~2865 Kbps
    Аудио: AC3, 2 ch, 192 Kbps

    M/I
    General
    Unique ID                   : 84173044447342117238327918486114179109 (0x3F5323809B65AD67FF8C91A7BC369825)
    Complete name               : F:СериалыЛачуга должника (2017).by.АлехаndrСерия 1.by.Алехаndr.mkv
    Format                      : Matroska
    Format version              : Version 4 / Version 2
    File size                   : 1.13 GiB
    Duration                    : 51 min 49 s
    Overall bit rate            : 3 118 kb/s
    Writing application         : Lavf57.71.100
    Writing library             : Lavf57.71.100
    ErrorDetectionType          : Per level 1

    Video
    ID                          : 1
    Format                      : AVC
    Format/Info                 : Advanced Video Codec
    Format profile              : High@L4
    Format settings             : CABAC / 2 Ref Frames
    Format settings, CABAC      : Yes
    Format settings, ReFrames   : 2 frames
    Codec ID                    : V_MPEG4/ISO/AVC
    Duration                    : 51 min 49 s
    Bit rate                    : 2 864 kb/s
    Width                       : 1 920 pixels
    Height                      : 1 080 pixels
    Display aspect ratio        : 16:9
    Frame rate mode             : Constant
    Frame rate                  : 25.000 FPS
    Color space                 : YUV
    Chroma subsampling          : 4:2:0
    Bit depth                   : 8 bits
    Scan type                   : Progressive
    Bits/(Pixel*Frame)          : 0.055
    Stream size                 : 1.04 GiB (92%)
    Default                     : Yes
    Forced                      : No
    Color range                 : Limited
    Color primaries             : BT.709
    Transfer characteristics    : BT.709
    Matrix coefficients         : BT.709

    Audio
    ID                          : 2
    Format                      : AC-3
    Format/Info                 : Audio Coding 3
    Codec ID                    : A_AC3
    Duration                    : 51 min 49 s
    Bit rate mode               : Constant
    Bit rate                    : 192 kb/s
    Channel(s)                  : 2 channels
    Channel positions           : Front: L R
    Sampling rate               : 44.1 kHz
    Frame rate                  : 28.711 FPS (1536 SPF)
    Bit depth                   : 16 bits
    Compression mode            : Lossy
    Delay relative to video     : -160 ms
    Stream size                 : 71.2 MiB (6%)
    Language                    : unknown
    Service kind                : Complete Main
    Default                     : Yes
    Forced                      : NoСвернуть


    Скриншоты
    [screen]http://i5.imageban.ru/out/2018/01/07/976a8190c27ecaaa034185ebd7c729d9.png[/screen][screen]http://i6.imageban.ru/out/2018/01/07/e3cfca39f2b549002080e1b689959436.png[/screen][screen]http://i4.imageban.ru/out/2018/01/07/f656988924e7e2b1807996b13b03818e.png[/screen][screen]http://i6.imageban.ru/out/2018/01/07/86401a3e8c637d2fb348a32fe30f9f1f.png[/screen]Свернуть
    Похожие раздачи Искать похожие
    Инструкция по скачиванию
     1  Качаем uTorrent версии 2.0 и выше
     2  После установки, жмем выше под постером на ссылку Скачать [MediaGet] или Скачать .torrent
     3  Открываем скачанный файл через соответствующий клиент: MediaGet или uTorrent
     4  Ждем пока подключатся участники
     5  Качаем
    Комментарии о  Лачуга должника [Серии 01-08 из 08] | WEB-DL 1080p 
    Ближайшее в кино
    Вверх