• Игры для PS4
  • Игры для PS3
  • Игры для XBOX360
  • Игры для PC
  • Игры для PS2
  • Игры для PSP
  • Для телефонов
  • Музыка
  • Книги / Журналы
  • Обои
  • Опрос
    Откуда Вы о нас узнали?
      0
    • От знакомых2,1,false,300,full
    • Из социальных сетей2,2,false,300,full
    • Из поисковых систем2,3,false,300,full
    • Другое2,4,false,300,full
    Статистика
    Всего онлайн -
    Гостей -
    Пользователей -
    Короли трекера
    
    Благодарности () Закрыть
    Быстрее загружает сайты Экономит интернет—трафик Меняет оформление страницы ВК Блокирует всю рекламу на сайтах Загружает торренты как µTorrent клиент Объеденяет все твои чаты из соц. сетей в один Проигрывает твою музыку не заходя во ВКонтакте
    Новый интернет-браузер
    Orbitum
    Скачать
    и многое другое... Подробности на сайте производителя
    Информация о фильме
    Название: Мумия
    Оригинальное название: The Mummy
    Год выхода: 1999
    Жанр: Приключения, фэнтези, мистика, ужасы, боевик, триллер, ремейк
    Режиссер: Стивен Соммерс
    В ролях: Брендан Фрейзер, Рэйчел Вайз, Джон Ханна, Арнольд Вослу, Кевин Дж. О`Коннор, Джонатан Хайд, Одед Фер, Эрик Авари, Бернард Фокс, Стефен Данхэм, Кори Джонсон, Омид Джалили, Патрисия Веласкес

    О фильме:
    На бескрайних просторах египетской пустыни компания сорвиголов разных национальностей рыщет в поисках несметных сокровищ фараона, над которыми тяготеет жуткое древнее проклятие. Рядом с кладом покоится мумия коварного жреца, жестоко казненного за ужасное убийство могущественного правителя Египта. Золотоискатели потревожили многовековой покой гробницы, и мумия встает из могилы, чтобы погрузить мир в царство кошмара…



    Страна: США
    Студия: Alphaville Films, Universal Pictures
    Продолжительность: 02:04:49
    Перевод(ы):
    #1: Профессиональный многоголосый
    #2: Авторский | Гаврилов

    Файл
    Качество: BDRemux 2160p
    Видео: MPEG-H HEVC HDR Video, 3840x2160, 55.0 Mbit/s, 23.976 fps
    Звук:
    Аудио #01: 48 kHz, AC3, 5.1, 384 Kbps | Профессиональный многоголосый | RUS |[img]http://lostpix.com/img/2016-04/26/ecarul7mj2gcrjkf30af8u4tk.gif[/img]
    Аудио #02: 48 kHz, DTS, 5.1, 755 Kbps | Авторский | RUS |[img]http://lostpix.com/img/2016-04/26/ecarul7mj2gcrjkf30af8u4tk.gif[/img]
    Аудио #03: 48 kHz, DTS-HD MA, 7.1, 7482 Kbps | Оригинал |  ENG |[img]http://lostpix.com/img/2016-09/30/0icucyo5gq0qmwlibabcgmhiw.gif[/img]
    Субтитры: Русские (full), английские

    [img]http://img12.lostpic.net/2018/01/07/e9fb6721182e745dce41c09d4ed96a58.png[/img][img]http://img12.lostpic.net/2018/01/07/f149f0b607a8d32b6f9f98f85c00d8aa.png[/img][img]http://img12.lostpic.net/2018/01/07/a18b8fc5c1c7779d4c8a18047224a286.png[/img][img]http://img12.lostpic.net/2018/01/07/7fe54f1b386339393aecd0734091e9eb.png[/img][img]http://img12.lostpic.net/2018/01/07/0fddcdaaceea5c550a5fe0d7ae551a1c.png[/img]

    MI
    General
    Unique ID                   : 243108317123773775497834573482560224681 (0xB6E4F571CEEAE612F4282B39EB7A7DA9)
    Complete name               : I:VideoFULLThe.Mummy.1999.BDREMUX.2160p.4K.UltraHD.HEVC.HDR.ExKinoRay.mkv
    Format                      : Matroska
    Format version              : Version 4 / Version 2
    File size                   : 55.4 GiB
    Duration                    : 2 h 4 min
    Overall bit rate            : 63.5 Mb/s
    Movie name                  : The Mummy 1999 from ExKinoRay
    Encoded date                : UTC 2018-01-07 09:49:14
    Writing application         : mkvmerge v19.0.0 ("Brave Captain") 64-bit
    Writing library             : libebml v1.3.5 + libmatroska v1.4.8

    Video
    ID                          : 1
    Format                      : HEVC
    Format/Info                 : High Efficiency Video Coding
    Format profile              : Main 10@L5.1@High
    Codec ID                    : V_MPEGH/ISO/HEVC
    Duration                    : 2 h 4 min
    Bit rate                    : 55.0 Mb/s
    Width                       : 3 840 pixels
    Height                      : 2 160 pixels
    Display aspect ratio        : 16:9
    Frame rate mode             : Constant
    Frame rate                  : 23.976 (24000/1001) FPS
    Color space                 : YUV
    Chroma subsampling          : 4:2:0 (Type 2)
    Bit depth                   : 10 bits
    Bits/(Pixel*Frame)          : 0.276
    Stream size                 : 47.9 GiB (86%)
    Language                    : English
    Default                     : Yes
    Forced                      : No
    Color range                 : Limited
    Color primaries             : BT.2020
    Transfer characteristics    : PQ
    Matrix coefficients         : BT.2020 non-constant
    Mastering display color pri : R: x=0.680000 y=0.320000, G: x=0.265000 y=0.690000, B: x=0.150000 y=0.060000, White point: x=0.312700 y=0.329000
    Mastering display luminance : min: 0.0000 cd/m2, max: 1000.0000 cd/m2
    Maximum Content Light Level : 1033 cd/m2
    Maximum Frame-Average Light : 345 cd/m2

    Audio #1
    ID                          : 2
    Format                      : AC-3
    Format/Info                 : Audio Coding 3
    Codec ID                    : A_AC3
    Duration                    : 2 h 4 min
    Bit rate mode               : Constant
    Bit rate                    : 384 kb/s
    Channel(s)                  : 6 channels
    Channel positions           : Front: L C R, Side: L R, LFE
    Sampling rate               : 48.0 kHz
    Frame rate                  : 31.250 FPS (1536 SPF)
    Bit depth                   : 16 bits
    Compression mode            : Lossy
    Stream size                 : 343 MiB (1%)
    Title                       : MVO
    Language                    : Russian
    Service kind                : Complete Main
    Default                     : Yes
    Forced                      : No

    Audio #2
    ID                          : 3
    Format                      : DTS
    Format/Info                 : Digital Theater Systems
    Format profile              : ES Matrix / Core
    Codec ID                    : A_DTS
    Duration                    : 2 h 4 min
    Bit rate mode               : Constant
    Bit rate                    : 755 kb/s
    Channel(s)                  : 7 channels / 6 channels
    Channel positions           : Front: L C R, Side: L R, Back: C, LFE / Front: L C R, Side: L R, LFE
    Sampling rate               : 48.0 kHz
    Frame rate                  : 93.750 FPS (512 SPF)
    Bit depth                   : 24 bits
    Compression mode            : Lossy
    Stream size                 : 674 MiB (1%)
    Title                       : AVO [Gavrilov]
    Language                    : Russian
    Default                     : No
    Forced                      : No

    Audio #3
    ID                          : 4
    Format                      : DTS
    Format/Info                 : Digital Theater Systems
    Format profile              : X / MA / Core
    Codec ID                    : A_DTS
    Duration                    : 2 h 4 min
    Bit rate mode               : Variable / Variable / Constant
    Bit rate                    : 7 482 kb/s / 7 482 kb/s / 1 509 kb/s
    Channel(s)                  : Object Based / 8 channels / 6 channels
    Channel positions           : Object Based / Front: L C R, Side: L R, Back: L R, LFE / Front: L C R, Side: L R, LFE
    Sampling rate               :  / 48.0 kHz / 48.0 kHz
    Frame rate                  : 93.750 FPS (512 SPF)
    Bit depth                   :  / 24 bits / 24 bits
    Compression mode            :  / Lossless / Lossy
    Stream size                 : 6.52 GiB (12%)
    Title                       : Original
    Language                    : English
    Default                     : No
    Forced                      : No

    Text #1
    ID                          : 5
    Format                      : UTF-8
    Codec ID                    : S_TEXT/UTF8
    Codec ID/Info               : UTF-8 Plain Text
    Duration                    : 1 h 55 min
    Bit rate                    : 72 b/s
    Count of elements           : 1140
    Stream size                 : 61.4 KiB (0%)
    Title                       : Full
    Language                    : Russian
    Default                     : No
    Forced                      : No

    Text #2
    ID                          : 6
    Format                      : UTF-8
    Codec ID                    : S_TEXT/UTF8
    Codec ID/Info               : UTF-8 Plain Text
    Duration                    : 1 h 55 min
    Bit rate                    : 41 b/s
    Count of elements           : 1099
    Stream size                 : 35.1 KiB (0%)
    Title                       : Full
    Language                    : English
    Default                     : No
    Forced                      : No

    Menu
    00:00:00.000                : en:The Living Death
    00:07:10.430                : en:Sand and Blood
    00:12:19.155                : en:The Key to Hamunaptra
    00:23:19.732                : en:The Expedition
    00:29:03.116                : en:The Magi Strike
    00:36:46.121                : en:The City of the Dead
    00:43:38.908                : en:Chambers of Death
    00:49:06.610                : en:Leave or Die!
    00:53:33.877                : en:The Black Book
    00:57:29.655                : en:The Bringer of Death
    01:11:13.352                : en:A Curse in Cairo
    01:18:48.307                : en:The Regeneration
    01:27:29.619                : en:Evelyn"s Choice
    01:30:03.898                : en:Back to Hamunaptra
    01:36:32.870                : en:Against the Dead
    01:43:58.023                : en:The Gold Book
    01:49:44.661                : en:Death of a Mortal
    01:56:51.671                : en:End TitlesСвернуть


    Подпишись на меня, кликни по картинке > : [img]http://i069.radikal.ru/1712/fb/cc798e05d06e.gif[/img]

    [img]http://lostpix.com/img/2017-03/22/pa3kns75lpl0e564ik1il8ow9.gif[/img]
    Похожие раздачи Искать похожие
    Инструкция по скачиванию
     1  Качаем uTorrent версии 2.0 и выше
     2  После установки, жмем выше под постером на ссылку Скачать [MediaGet] или Скачать .torrent
     3  Открываем скачанный файл через соответствующий клиент: MediaGet или uTorrent
     4  Ждем пока подключатся участники
     5  Качаем
    Комментарии о  Мумия / The Mummy | BDRemux 
    Ближайшее в кино
    Вверх